Зов крови / Потерянная / Фэйри / Lost Girl / Сезон: 4 / Серии: 1-13 из 13 (Стив ДиМарко, Джон Фоусет) [2013, фэнтези, криминал, WEB-DLRip] DVO (NewStudio)

Ответить на тему
 
Автор
Сообщение

awk05 ®

Пол:

Стаж: 6 лет 1 месяц

Сообщений: 1351

Репутация: 275 [+] [-]

Откуда: Западная Украина Ривне

Пост 14-Ноя-2013 04:41

[Цитировать] 

--Зов крови / Потерянная / Фэйри / Lost Girl-- Год выпуска: 2013
Страна: Канада
Жанр: ужасы, фэнтези, криминал
Сезон/Серия: Сезон:4 /Серия 1-13 из 13
Продолжительность: 13 х ~00:44:00 серия
Перевод: Профессиональный (многоголосый закадровый) -
Автор перевода: Дмитрий Малиновский
Субтитры: отсутствуют--Режиссёр: Джон Фоусет--В ролях: Анна Силк, Кристен Холден-Рид, Ксения Соло, Ричард Хоуланд, К.К. Коллинз, Зои Палмер и др.--Описание: Бо — суккуб. Выросшая в человеческой семье она не знала о своей истинной природе, считая себя фриком, а неумение контролировать сверхъестественный голод сделало ее одинокой беглянкой, оставляющей после себя череду трупов. Все меняется, когда Бо попадает в поле зрения кланов Фэйри, объяснивших ей кто она. Не желая выбирать между кланами Света и Тьмы, Бо решает занять сторону людей. Ей помогают юная русская воровка Кензи, детектив-оборотень Дайсон и доктор Лорен, занимающаяся изучением Фэйри.-- --Качество: WEB-DLRip
Формат: AVI
Видео: XviD, 720x400 (16:9), 23,976 fps, ~1472 kb/s, 0,213 bit/pixel
Аудио Rus: (MPEG Layer 3, 48,0 KHz, 2 ch, 128 kb/s) - многоголосый закадровый
Аудио Eng: (MPEG Layer 3, 48,0 KHz, 2 ch, 128 kb/s) - оригинал--

Список серий


01. In Memoriam / В память
02. Sleeping Beauty School / Школа Спящих Красавиц
03. Lovers. Apart. / Разлученные
04. Turn to Stone / Обращение в камень
05. Let the Dark Times Roll / Темные времена
06. Of All the Gin Joints / Из всех забегаловок
07. La Fae Époque / Эпоха фей
08. Groundhog Fae / Феи сурка
09. Destiny's Child / Дитя судьбы
10. Waves / Волны
11. End of a Line / Конец одной истории
12. Origin / Начало
13. Dark Horse / Тёмная лошадка

MediaInfo

Общее
Полное имя : Lost.Girl.s04e01.WEBDLRip.NewStudio.TV.avi
Формат : AVI
Формат/Информация : Audio Video Interleave
Размер файла : 553 Мбайт
Продолжительность : 44 м.
Общий поток : 1742 Кбит/сек
Программа кодирования : VirtualDubMod 1.5.10.2 (build 2540/release)
Библиотека кодирования : VirtualDubMod build 2540/release
Видео
Идентификатор : 0
Формат : MPEG-4 Visual
Профиль формата : Advanced Simple@L5
Параметр BVOP формата : 2
Параметр QPel формата : Нет
Параметр GMC формата : Без точки перехода
Параметр матрицы формата : Default (MPEG)
Идентификатор кодека : XVID
Идентификатор кодека/Подсказка : XviD
Продолжительность : 44 м.
Битрейт : 1472 Кбит/сек
Ширина : 720 пикселей
Высота : 400 пикселей
Соотношение сторон : 16:9
Частота кадров : 23,976 кадра/сек
Цветовое пространство : YUV
Субдискретизация насыщенности : 4:2:0
Битовая глубина : 8 бит
Тип развёртки : Прогрессивная
Метод сжатия : С потерями
Бит/(Пиксели*Кадры) : 0.213
Размер потока : 467 Мбайт (85%)
Библиотека кодирования : XviD 64
Аудио #1
Идентификатор : 1
Формат : MPEG Audio
Версия формата : Version 1
Профиль формата : Layer 3
Режим : Joint stereo
Расширение режима : MS Stereo
Идентификатор кодека : 55
Идентификатор кодека/Подсказка : MP3
Продолжительность : 44 м.
Вид битрейта : Постоянный
Битрейт : 128 Кбит/сек
Каналы : 2 канала
Частота : 48,0 КГц
Метод сжатия : С потерями
Размер потока : 40,6 Мбайт (7%)
Выравнивание : Соединение по промежуткам
Продолжительность промежутка : 42 мс. (1,00 видеокадр)
Время предзагрузки промежутка : 504 мс.
Аудио #2
Идентификатор : 2
Формат : MPEG Audio
Версия формата : Version 1
Профиль формата : Layer 3
Режим : Joint stereo
Расширение режима : MS Stereo
Идентификатор кодека : 55
Идентификатор кодека/Подсказка : MP3
Продолжительность : 44 м.
Вид битрейта : Постоянный
Битрейт : 128 Кбит/сек
Каналы : 2 канала
Частота : 48,0 КГц
Метод сжатия : С потерями
Размер потока : 40,6 Мбайт (7%)
Выравнивание : Соединение по промежуткам
Продолжительность промежутка : 42 мс. (1,00 видеокадр)
Время предзагрузки промежутка : 504 мс.
Библиотека кодирования : LAME3.99r
Настройки программы : -m j -V 4 -q 2 -lowpass 17 -b 128

Скриншоты

Раздача ведётся путём добавления новых серий

Раздача ведётся путём добавления новых серий; при каждом добавлении создаётся новый торрент. Чтобы начать докачку новой серии, пользователям необходимо сделать следующее:
(1) остановить скачивание,
(2) удалить старый торрент у себя из клиента (старые серии удалять не надо),
(3) скачать новый торрент и запустить его у себя в клиенте вместо старого, при этом указать клиенту путь в старую папку куда и должно происходить скачивание новых серий.
Ваш клиент при этом должен произвести хеширование (проверку) старой папки (если не производит сам - помогите ему сделать это), и будет докачивать только те серии которых у вас ещё нет. Старые серии при этом не удаляются, а продолжают раздаваться!
Eсли вы уже удалили старые серии, то предотвратить повторную закачку старых серий можно, отжав галочку в соответствующих местах при запуске нового торрента. По возможности, желательно не удалять старые серии как можно дольше чтобы релизёр не столько продолжал раздавать старые серии, а смог сконцентрироваться на новых.

_________________
[Торрент-статистика]
[Профиль]  [ЛС] 
Показать сообщения:    
Ответить на тему

Текущее время: Сегодня 15:00

Часовой пояс: GMT + 4



Вы не можете начинать темы
Вы не можете отвечать на сообщения
Вы не можете редактировать свои сообщения
Вы не можете удалять свои сообщения
Вы не можете голосовать в опросах
Вы не можете прикреплять файлы к сообщениям
Вы не можете скачивать файлы