Эврика / Eureka / Сезон: 5 / Серии: 1-13 из 13 (Майк Рол, Майкл Ланж, Майкл Робисан) [2012 г., фантастика, драма, комедия, WEB-DLRip 400p] MVO (LostFilm)

Ответить на тему
 
Автор
Сообщение

awk05 ®

Пол:

Стаж: 6 лет 3 месяца

Сообщений: 1351

Репутация: 275 [+] [-]

Откуда: Западная Украина Ривне

Пост 31-Окт-2013 06:24

[Цитировать] 

-- --Эврика / Eureka«Small town. Big secret»-- Страна: США / SyFy
Жанр: фантастика, комедия, драма, детектив
Год выпуска: 2012
Сезон/Серия: Сезон:5 / Серия 1-13 из 13
Продолжительность: 13 х ~ 00:45:00
Перевод: Профессиональный (многоголосый закадровый)
Озвучка / Автор перевода: LostFilm
Cубтитры: англ--Режиссер: Майк Рол, Майкл Ланж, Майкл Робисан--В ролях: Колин Фергюсон (Jack Carter), Салли Ричардсон-Уитфилд (Allison Blake), Эрика Серра (Jo Lupo), Нил Грэйстон (Douglas Fargo), Джо Мортон (Henry Deacon), Крис Готье (Vincent), Джордан Хинсон (Zoe Carter), Найолл Мэттер (Zane Donovan), Эд Куинн (Nathan Stark), Дебра Фарентино (Beverly Barlowe), Темби Лок (Grace Monroe), Кристофер Жако (Larry Haberman), Каван Смит (Deputy Andy 2.0), Фелиша Дэй (Holly Marten), и др.--Описание: Поскольку Вторая Мировая Война закончилась уничтожением Хиросимы и Нагасаки, наука и изобретения стали приоритетными во всем мире. Америка чуть не проиграла гонку с атомными бомбами; это не должно повториться.
С помощью Альберта Эйнштейна и других доверенных советников, Президент Гарри С. Труман уполномочил начать заселение удаленной области Тихоокеанского Северо-запада, чтобы сохранить интеллектуальные ценности Америки. Там величайшие умы, вундеркинды, были бы в состоянии жить и работать в благосклонной окружающей среде. Лучшие архитекторы и планировщики были уполномочены построить такое место для этих превосходных гениев, где бы они жили и имели лучшее образование для своих детей, лучшую систему здравоохранения, все для комфортного проживания жизни. Это общество жило бы так же, как все, но с небольшим различием: этот город не обозначен ни на одной карте. О нем никто не знает, кроме Пентагона.
Так появился город Эврика. Но в этом маленьком городе все совсем не так, как в других маленьких городах. Большинство «квантовых прыжков» в науке и технике в течение 50 лет было произведено именно элитными исследователями из Эврики. К сожалению, научные исследования всегда непредсказуемы, и годы экспериментов привели к некоторым побочным явлениям.
От невостребованной любви до профессиональной ревности, от склонности до депрессии, проблемы горожан Эвреки увеличиваются с каждым днем. Но с уникальными талантами населения и безграничными ресурсами, эти провинциальные проблемы могут стать большими проблемами. Именно там, где человеческая непрочность и супернаука сталкиваются, Эврика, начинается...--Качество видео: WEB-DLRip
Формат видео: AVI
Видео кодек: MPEG4, XviD
Аудио кодек: AC-3
Видео: MPEG4, XviD, 720x400 (16:9), 23.976 fps, 1 996 Kbps (0.187 bit/pixel)
Аудио 1: AC-3, 48.0 KHz, 2 ch, 192 Kbps, CBR, 16 bits [Русский]
Аудио 2: AC-3, 48.0 KHz, 6 ch, 384 Kbps, CBR, 16 bits [Английский] -- --

Список серий

01. Пропавшие | Lost
02. Все по-настоящему | The Real Thing
03. Выход силой | Force Quit
04. Дружественный огонь | Friendly Fire
05. Джек на все руки | Jack of All Trades
06. Худший вариант | Worst Case Scenario
07. Из машины | Ex Machina
08. В бездне | In Too Deep
09. Умник Картер | Smarter Carter
10. Молодожёны | The Honeymooners
11. Зеркало, зеркало | Mirror, Mirror
12. Не верь глазам своим | Double-Take
13. Новый день | Just Another Day...

Тех. данные (MI)

Код:
General
Complete name : Eureka Season 5\Eureka.s05e01.rus.eng.avi
Format : AVI
Format/Info : Audio Video Interleave
File size : 858 MiB
Duration : 43mn 10s
Overall bit rate : 2 779 Kbps
Writing application : VirtualDubMod 1.5.10.2 (build 2540/release)
Writing library : VirtualDubMod build 2540/release
Video
ID : 0
Format : MPEG-4 Visual
Format profile : Advanced Simple@L5
Format settings, BVOP : 1
Format settings, QPel : No
Format settings, GMC : No warppoints
Format settings, Matrix : Default (MPEG)
Codec ID : XVID
Codec ID/Hint : XviD
Duration : 43mn 10s
Bit rate : 1 997 Kbps
Width : 720 pixels
Height : 400 pixels
Display aspect ratio : 16:9
Frame rate : 23.976 fps
Color space : YUV
Chroma subsampling : 4:2:0
Bit depth : 8 bits
Scan type : Progressive
Compression mode : Lossy
Bits/(Pixel*Frame) : 0.289
Stream size : 617 MiB (72%)
Writing library : XviD 65
Audio #1
ID : 1
Format : AC-3
Format/Info : Audio Coding 3
Mode extension : CM (complete main)
Codec ID : 2000
Duration : 43mn 10s
Bit rate mode : Constant
Bit rate : 384 Kbps
Channel(s) : 6 channels
Channel positions : Front: L C R, Side: L R, LFE
Sampling rate : 48.0 KHz
Bit depth : 16 bits
Compression mode : Lossy
Stream size : 119 MiB (14%)
Alignment : Split accross interleaves
Interleave, duration : 42 ms (1.00 video frame)
Interleave, preload duration : 500 ms
Audio #2
ID : 2
Format : AC-3
Format/Info : Audio Coding 3
Mode extension : CM (complete main)
Codec ID : 2000
Duration : 43mn 10s
Bit rate mode : Constant
Bit rate : 384 Kbps
Channel(s) : 6 channels
Channel positions : Front: L C R, Side: L R, LFE
Sampling rate : 48.0 KHz
Bit depth : 16 bits
Compression mode : Lossy
Stream size : 119 MiB (14%)
Alignment : Split accross interleaves
Interleave, duration : 42 ms (1.00 video frame)
Interleave, preload duration : 500 ms

Кадры из фильма


«СЕЗОН 1» «СЕЗОН 2»«СЕЗОН 3» «СЕЗОН 4» «СЕЗОН 5»

_________________
[Торрент-статистика]
[Профиль]  [ЛС] 
Показать сообщения:    
Ответить на тему

Текущее время: Сегодня 22:33

Часовой пояс: GMT + 4



Вы не можете начинать темы
Вы не можете отвечать на сообщения
Вы не можете редактировать свои сообщения
Вы не можете удалять свои сообщения
Вы не можете голосовать в опросах
Вы не можете прикреплять файлы к сообщениям
Вы не можете скачивать файлы