Шпионка / Alias, полный 2 сезон (J.J. Abrams) [2003, Боевик, Драма, DVDRip] SET Russia

Ответить на тему
 
Автор
Сообщение

awk05 ®

Пол:

Стаж: 8 лет 8 месяцев

Сообщений: 1334

Репутация: 278 [+] [-]

Откуда: Западная Украина Ривне

Пост 30-Окт-2013 19:42

[Цитировать] 

-Шпионка / Alias- Год выпуска: 2003
Страна: США
Жанр: Боевик, Драма
Продолжительность: ~43 мин. серия
Перевод: профессиональный многоголосый закадровый (SET Russia)
Субтитры: нет-Режиссёр: Джей Джей Абрамс, Кен Олин, Джеффри Белл, Гарри Уайнер-В ролях: Дженнифер Гарнер, Майкл Вартан, Рон Рифкин, Виктор Гарбер, Карл Ламбли, Кевин Уайзман, Грег Гранберг, Брэдли Купер, Дэвид Андерс, Меррин Данги-Описание: Второй сезон начинается с появления Ирины Деревко, матери Сидни, которая вскоре становится важной частью сериала. В середине сезона, после уничтожения ценных данных на сервере Союза Двенадцати, СД-6 и другие филиалы союза были уничтожены, Сидни становится просто агентом ЦРУ, все ещё преследующим Арвина Слоуна и его партнера Джулиана Сарка, занимающихся поиском артефактов Майло Рамбальди. Друзья Сидни из СД-6, Маркус Диксон и Маршалл Флинкман, узнали, наконец, что Сидни была двойным агентом, и тоже были завербованы в ЦРУ.
Сидни и Вон теперь могли не скрывать свои чувства друг к другу от окружающих. Они стали встречаться. Уилл Типпин, друг Сидни, работавший журналистом в газете, после опубликования своей статьи об СД-6, вынужден был уволиться и признать свою статью вымыслом, чтобы остаться в живых. После разгрома СД-6 Майкл Вон давал некоторые мелкие поручения Уиллу, так как тот не мог найти работу из-за своей репутации. Фрэнси открыла свой ресторан, и Уилл помогал ей в ресторане.
Во второй половине сезона, Фрэнси Калфо, лучшая подруга Сидни, была убита и заменена Эллисон Дорин — женщиной, которая была преобразована в точную копию Фрэнси. Таким образом Эллисон получила возможность шпионить за Сидни и Уиллом. В конце сезона Сидни узнает об этом, и в ходе драки между «подругами» Фрэнси-Эллиссон возможно была убита, а Сидни теряет сознание. Сидни приходит в себя в квартале Гонконга, два года спустя, ничего не понимая и неспособная что-либо вспомнить за прошедшие два года. Вскоре она узнаёт, что её друзья и ЦРУ считают, что она мертва. Вон нашел новую любовь и теперь женат.- -Качество: DVDRip
Формат: AVI
Видео кодек: XviD
Аудио кодек: MP3
Видео: 640x368; 23.976 fps; XviD ~1000 kbps; 0,173 Bits/Pixel
Аудио 1: Русский, mp3, 48 kHz, 2 ch, 128.00 kbps
Аудио 2: Английский, mp3, 48 kHz, 2 ch, 128.00 kbps

MI

Alias.S02.DVDRip.Rus.Eng\Alias.S02E01.DVDRip.XviD.Rus.Eng.avi
General
Complete name : Alias.S02.DVDRip.Rus.Eng\Alias.S02E01.DVDRip.XviD.Rus.Eng.avi
Format : AVI
Format/Info : Audio Video Interleave
File size : 394 MiB
Duration : 43mn 38s
Overall bit rate : 1 263 Kbps
Writing application : VirtualDubMod 1.5.10.2 (build 2540/release)
Writing library : VirtualDubMod build 2540/release
Video #0
ID : 0
Format : MPEG-4 Visual
Format settings, BVOP : No
Format settings, QPel : No
Format settings, GMC : No warppoints
Format settings, Matrix : Default (H.263)
Codec ID : XVID
Codec ID/Hint : XviD
Duration : 43mn 38s
Bit rate : 979 Kbps
Width : 640 pixels
Height : 368 pixels
Display aspect ratio : 16:9
Frame rate : 23.976 fps
Color space : YUV
Chroma subsampling : 4:2:0
Bit depth : 8 bits
Scan type : Progressive
Bits/(Pixel*Frame) : 0.173
Stream size : 306 MiB (77%)
Audio #1
ID : 1
Format : MPEG Audio
Format version : Version 1
Format profile : Layer 3
Mode : Joint stereo
Mode extension : MS Stereo
Codec ID : 55
Codec ID/Hint : MP3
Duration : 43mn 38s
Bit rate mode : Variable
Bit rate : 129 Kbps
Channel(s) : 2 channels
Sampling rate : 48.0 KHz
Stream size : 40.3 MiB (10%)
Alignment : Aligned on interleaves
Interleave, duration : 24 ms (0.58 video frame)
Interleave, preload duration : 148 ms
Audio #2
ID : 2
Format : MPEG Audio
Format version : Version 1
Format profile : Layer 3
Mode : Joint stereo
Mode extension : MS Stereo
Codec ID : 55
Codec ID/Hint : MP3
Duration : 43mn 38s
Bit rate mode : Variable
Bit rate : 135 Kbps
Minimum bit rate : 96.0 Kbps
Channel(s) : 2 channels
Sampling rate : 48.0 KHz
Stream size : 42.1 MiB (11%)
Alignment : Aligned on interleaves
Interleave, duration : 24 ms (0.58 video frame)
Interleave, preload duration : 143 ms
Writing library : LAME3.92
Encoding settings : -m j -V 1 -q 2 -lowpass 19.5 --vbr-new -b 96

Скриншоты

«СЕЗОН 1» «СЕЗОН 2»«СЕЗОН 3» «СЕЗОН 4» «СЕЗОН 5»

_________________
[Торрент-статистика]
[Профиль]  [ЛС] 
Показать сообщения:    
Ответить на тему

Текущее время: Сегодня 17:16

Часовой пояс: GMT + 4



Вы не можете начинать темы
Вы не можете отвечать на сообщения
Вы не можете редактировать свои сообщения
Вы не можете удалять свои сообщения
Вы не можете голосовать в опросах
Вы не можете прикреплять файлы к сообщениям
Вы не можете скачивать файлы