Посредник Кейт / Все законно / Fairly Legal / Сезон: 1 / Серии: 1-10 (10) (Антон Кроппер, Питер Маркл, Энди Волк) [2011, детектив, драма, комедия, WEB-DL 720p] MVO (Universal Russia)

Ответить на тему
 
Автор
Сообщение

awk05 ®

Пол:

Стаж: 6 лет 6 месяцев

Сообщений: 1347

Репутация: 275 [+] [-]

Откуда: Западная Украина Ривне

Пост 30-Окт-2013 16:33

[Цитировать] 

--Посредник Кейт / Fairly Legal«Less lawyer. More appeal» --Год выпуска: 2011
Страна: США
Жанр: детектив, драма, комедия
Сезон/Серия: Сезон:1 /Серия 1-10 из 10
Продолжительность: 10 х 01:04:06
Перевод: многоголосый профессиональный закадровый
Озвучка / Автор перевода: (Universal Russia)
Субтитры: отсутствуют--Режиссёр: Роберт Берлингер, Энди Волк, Тришиа Брок--В ролях: Сара Шахи, Майкл Трукко, Барон Вон, Джинджер Р. Уильямс, Итэн Эмбри, Ричард Дин Андерсон, Стив Белфорд, Джеффри Бауэр-Чепман, Рауль Бустаманте...--Описание: Кейт Рид (Сара Шахи) уверена, что суд – не всегда единственный источник правосудия. Раньше она работала юристом в уважаемой фирме в Сан-Франциско, принадлежащей ее семье, однако, разочаровавшись в судебной системе, Кейт становится медиатором. Врожденное понимание человеческой натуры, знание законов и прекрасное чувствуо юмора делают Кейт самой подходящей кандидатурой для разрешения споров... За исключением конфликтов, происходящих в ее собственной жизни. После внезапной смерти отца отношения между Кейт и ее новым начальником, «ужасной» мачехой Лорен (Вирджиния Уильямс), становятся еще сложнее, а ситуация с её бывшим мужем Джастином (Майкл Трукко), помощником окружного прокурора в Сан-Франциско, никак не прояснятся. Ее находчивый помощник Леонардо (Барон Вон) помогает Кейт сделать все возможное, чтобы сконцентрироваться на работе и скрыться от собственных проблем. Внезапно появляются новые личные проблемы и сложные, нестандартные дела: мастерству новоиспеченного медиатора предстоит пройти проверку на прочность. «Посредник Кейт» — это свежее веяние среди сериалов о правосудии...--Качество видео: WEB-DL 720p
Формат видео: MKV
Видео кодек: AVC (High@L3.1)
Аудио кодек: AC-3
Видео: AVC, 1280x720 (16:9), 23.976 fps, 4 046 Kbps (0.183 bit/pixel)
Аудио 1: AC-3, 48.0 KHz, 2 ch, 192 Kbps, CBR , 16 bits [Русский]
Аудио 2: AC-3, 48.0 KHz, 6 ch, 384 Kbps, CBR, 16 bits [Английский] -- --

Тех. данные (MI)

Код:
General
Complete name : Все Законно\fairly.legal.s01e01.webdl.720p.rus.eng. СПАМ
Format : Matroska
File size : 2.11 GiB
Duration : 1h 4mn
Overall bit rate : 4 716 Kbps
Encoded date : UTC 2011-04-09 16:54:34
Writing application : mkvmerge v4.6.0 ('Still Crazy After All These Years') сборка от Mar 10 2011 02:50:32
Writing library : libebml v1.2.0 libmatroska v1.1.0
Video
ID : 1
Format : AVC
Format/Info : Advanced Video Codec
Format profile : High@L3.1
Format settings, CABAC : No
Format settings, ReFrames : 2 frames
Muxing mode : Container profile=Unknown@3.1
Codec ID : V_MPEG4/ISO/AVC
Duration : 1h 4mn
Bit rate : 4 046 Kbps
Width : 1 280 pixels
Height : 720 pixels
Display aspect ratio : 16:9
Frame rate : 23.976 fps
Resolution : 8 bits
Colorimetry : 4:2:0
Scan type : Progressive
Bits/(Pixel*Frame) : 0.183
Stream size : 1.81 GiB (86%)
Title : Fairly Legal - Season 1, Episode 1: Pilot
Color primaries : BT.709-5, BT.1361, IEC 61966-2-4, SMPTE RP177
Transfer characteristics : BT.709-5, BT.1361
Matrix coefficients : BT.709-5, BT.1361, IEC 61966-2-4 709, SMPTE RP177
Audio #1
ID : 2
Format : AC-3
Format/Info : Audio Coding 3
Codec ID : A_AC3
Duration : 1h 4mn
Bit rate mode : Constant
Bit rate : 192 Kbps
Channel(s) : 2 channels
Channel positions : Front: L R
Sampling rate : 48.0 KHz
Stream size : 88.1 MiB (4%)
Title : Dolby Digital 2.0 @ 192 kbps
Language : Russian
Audio #2
ID : 3
Format : AC-3
Format/Info : Audio Coding 3
Codec ID : A_AC3
Duration : 1h 4mn
Bit rate mode : Constant
Bit rate : 384 Kbps
Channel(s) : 6 channels
Channel positions : Front: L C R, Side: L R, LFE
Sampling rate : 48.0 KHz
Stream size : 176 MiB (8%)
Title : Dolby Digital 5.1 @ 384 kbps

Список серий

01. Пилотная серия (Pilot)
02. Цена свободы (Priceless)
03. На скамье запасных (Benched)
04. Единожды солгавши (Bo Me Once)
05. Двое по фамилии Ричардс (The Two Richards)
06. Верящие (Believers)
07. Возвращение домой (Coming Home)
08. Ультравинил (UltraVinyl)
09. Брачный контракт (My Best Friend's Prenup)
10. Мосты (Bridges)

Кадры из фильма



«СЕЗОН 1» «СЕЗОН 2»

_________________
[Торрент-статистика]
[Профиль]  [ЛС] 
Показать сообщения:    
Ответить на тему

Текущее время: Сегодня 15:39

Часовой пояс: GMT + 4



Вы не можете начинать темы
Вы не можете отвечать на сообщения
Вы не можете редактировать свои сообщения
Вы не можете удалять свои сообщения
Вы не можете голосовать в опросах
Вы не можете прикреплять файлы к сообщениям
Вы не можете скачивать файлы