Ясновидец / Psych / Сезон: 7 / Серии: 1-16 (16) (Стив Фрэнкс / Steve Franks) [2013 г., комедия, криминал, детектив, WEB-DLRip] DVO (NewStudio)

Ответить на тему
 
Автор
Сообщение

awk05 ®

Пол:

Стаж: 6 лет 1 месяц

Сообщений: 1351

Репутация: 275 [+] [-]

Откуда: Западная Украина Ривне

Пост 24-Окт-2013 20:28

[Цитировать] 

-Ясновидец / Psych- Год выпуска: 2013
Жанр: комедия, криминал, детектив]
Сезон/Серия: Сезон:7 /Серия 1-16 из 16
Продолжительность: 16 ~00:43:00
Перевод: Профессиональный (двухголосый, закадровый) /NewStudio/
Выпущено: США
Субтитры: Нет-Режиссер: Стив Фрэнкс-В ролях: Джеймс Родэй, Дьюли Хилл, Тимоти Омундсон, Мэгги Лоусон, Кирстен Нельсон и Корбин Бернсен]-Описание:Шон Спенсер — молодой консультант полиции в Санта-Барбаре, чья тонко развитая наблюдательность и неординарные дедуктивные способности позволяют ему убедить всех в том, что он ясновидящий. Отец Шона — сотрудник полиции — с детства учил сына замечать мельчайшие детали окружающей обстановки, и теперь Шон, используя свои уникальные навыки, вместе со своим другом Гасом помогает расследовать сложные уголовные дела.
При этом он делает вид, что руководствуется не реальными уликами, которые он находит, а неким наитием и голосами из потустороннего мира. Однако начальник уголовного розыска Карлтон Ласситер сомневается в том, что Шон обладает экстрасенсорными способностями, в то время как младший следователь Джульетт О’Хара и исполняющая обязанности начальника отделения Карен Вик не верят в то, что Шон ненастоящий ясновидящий.-Качество: WEB-DLRip
Формат: AVI
Видео кодек: XviD
Аудио кодек: MP3
Видео: 720x400 (16/9), 23.976 fps, 1500 Kbps (0.220 bit/pixel)
Аудио#1: Русский: 48 kHz, MPEG Layer 3, 2 ch, ~192 kbps avg /NewStudio/
Аудио#2: Английский: 48 kHz, MPEG Layer 3, 2 ch, ~128 kbps avg | Оригинал |-IMDB | Кинопоиск | Семпл |-Релиз:
Перевод: weirdie
Подготовка видео: Cherry
Озвучка: Илья Демьянов, Юлия Котурбаш
Работа со звуком: Cherry-

MI

Общее
Полное имя :psych.s07e01.webdl_NewStudio.TV.avi
Формат : AVI
Формат/Информация : Audio Video Interleave
Размер файла : 571 Мбайт
Продолжительность : 43 м.
Общий поток : 1856 Кбит/сек
Программа кодирования : VirtualDubMod 1.5.10.2 (build 2540/release)
Библиотека кодирования : VirtualDubMod build 2540/release
Видео
Идентификатор : 0
Формат : MPEG-4 Visual
Профиль формата : Advanced Simple@L5
Параметр BVOP формата : 2
Параметр QPel формата : Нет
Параметр GMC формата : Без точки перехода
Параметр матрицы формата : Default (MPEG)
Идентификатор кодека : XVID
Идентификатор кодека/Подсказка : XviD
Продолжительность : 43 м.
Битрейт : 1522 Кбит/сек
Ширина : 720 пикселей
Высота : 400 пикселей
Соотношение сторон : 16:9
Частота кадров : 23,976 кадра/сек
Цветовое пространство : YUV
Субдискретизация насыщенности : 4:2:0
Битовая глубина : 8 бит
Тип развёртки : Прогрессивная
Метод сжатия : С потерями
Бит/(Пиксели*Кадры) : 0.220
Размер потока : 468 Мбайт (82%)
Библиотека кодирования : XviD 65
Аудио #1
Идентификатор : 1
Формат : MPEG Audio
Версия формата : Version 1
Профиль формата : Layer 3
Режим : Joint stereo
Идентификатор кодека : 55
Идентификатор кодека/Подсказка : MP3
Продолжительность : 43 м.
Вид битрейта : Постоянный
Битрейт : 192 Кбит/сек
Каналы : 2 канала
Частота : 48,0 КГц
Метод сжатия : С потерями
Размер потока : 59,1 Мбайт (10%)
Выравнивание : Соединение по промежуткам
Продолжительность промежутка : 42 мс. (1,00 видеокадр)
Время предзагрузки промежутка : 504 мс.
Аудио #2
Идентификатор : 2
Формат : MPEG Audio
Версия формата : Version 1
Профиль формата : Layer 3
Режим : Joint stereo
Расширение режима : MS Stereo
Идентификатор кодека : 55
Идентификатор кодека/Подсказка : MP3
Продолжительность : 43 м.
Вид битрейта : Постоянный
Битрейт : 128 Кбит/сек
Каналы : 2 канала
Частота : 48,0 КГц
Метод сжатия : С потерями
Размер потока : 39,4 Мбайт (7%)
Выравнивание : Соединение по промежуткам
Продолжительность промежутка : 42 мс. (1,00 видеокадр)
Время предзагрузки промежутка : 504 мс.

Скриншоты


Внимание! Раздача ведётся путём добавления новых серий

Внимание! Раздача ведётся путём добавления новых серий; при каждом добавлении создаётся новый торрент. Чтобы начать докачку новой серии, пользователям необходимо сделать следующее: (1) остановить скачивание, (2) удалить старый торрент у себя из клиента (старые серии удалять не надо), (3) скачать новый торрент и запустить его у себя в клиенте вместо старого, при этом указать клиенту путь в старую папку куда и должно происходить скачивание новых серий.
Ваш клиент при этом должен произвести хеширование (проверку) старой папки (если не производит сам - помогите ему сделать это), и будет докачивать только те серии которых у вас ещё нет. Старые серии при этом не удаляются, а продолжают раздаваться!
Eсли вы уже удалили старые серии, то предотвратить повторную закачку старых серий можно, отжав галочку в соответствующих местах при запуске нового торрента.
«СЕЗОН 1» «СЕЗОН 2»«СЕЗОН 3» «СЕЗОН 4» «СЕЗОН 5» «СЕЗОН 6» «СЕЗОН 7»

_________________
[Торрент-статистика]
[Профиль]  [ЛС] 
Показать сообщения:    
Ответить на тему

Текущее время: Сегодня 14:53

Часовой пояс: GMT + 4



Вы не можете начинать темы
Вы не можете отвечать на сообщения
Вы не можете редактировать свои сообщения
Вы не можете удалять свои сообщения
Вы не можете голосовать в опросах
Вы не можете прикреплять файлы к сообщениям
Вы не можете скачивать файлы