Стрела / Arrow / Сезон: 2 / Серии: 1-23 из 23 (Гай Норман Би / Guy Norman Bee, Джон Беринг / John Behring) [2013, драма, приключения, боевик, WEB-DLRip] MVO [LostFilm]

Ответить на тему
 
Автор
Сообщение

awk05 ®

Пол:

Стаж: 6 лет 5 месяцев

Сообщений: 1348

Репутация: 275 [+] [-]

Откуда: Западная Украина Ривне

Пост 12-Окт-2013 02:10

[Цитировать] 

-- Стрела / Arrow- -Год выпуска: 2013
Страна: США
Жанр: драма, приключения, боевик
Сезон/Серия: Сезон:2 /Серия 1-23 из 23
Продолжительность: 23 х 00:43:00
Перевод: Профессиональный (многоголосый закадровый)
Русские субтитры: нет--Режиссёр: Гай Норман Би / Guy Norman Bee, Джон Беринг / John Behring--В ролях: Стивен Амелл, Кэти Кэссиди, Колин Доннелл, Дэвид Рэмси, Уилла Холланд, Сюзанна Томпсон, Пол Блекторн, Эмили Бетт Рикардс, Колин Сэлмон, Джон Барроумен--Описание: После кораблекрушения богатый женский угодник Оливер Куин долгое время считается погибшим. Через пять лет после трагедии его обнаруживают живым на одном таинственном тихоокеанском острове и возвращают домой в Старлинг-сити. Любящая мать Мойра, сестра Теа и друг Томми, осчастливленные его «воскрешением», со временем начинают замечать изменения в поведении Оливера. Сам Оливер от всех держит в тайне то, кем он стал. Желая загладить вину за свои прошлые ошибки и прегрешения его семьи, а также, надеясь вернуть былую славу Старлинг-сити, он становится героем-линчевателем по прозвищу Зеленая Стрела.
Днем это все тот же миллиардер-плейбой, как и до своего исчезновения, а ночью – герой в зеленном костюме с луком и стрелами за плечами. Все складывалось хорошо, но отец его бывшей девушки Лорель Ланс, с которой Оливер пытается наладить отношения, ставит перед собой цель – поймать промышляющего в городе линчевателя. В это же время матери Оливера Мойре открывается много новой информации о том злосчастном кораблекрушении, и она прилагает все усилия, чтобы скрыть от мира правду…--Качество видео:WEB-DLRip
Формат видео: AVI
Видео кодек: XviD
Аудио кодек: MP3
Видео: 720x400 (1.80:1), 23,976 кадра/сек, 1700 Кбит/сек, 0.29 Бит/(Пиксели*Кадры)
Аудио: 2 канала Front: L R, 48,0 КГц, 192 Кбит/сек, 16 бит [RUS] -- --

Список серий

01. Город героев
02. Найти себя
03. Сломанные куклы
04. Суровое испытание
05. Лига убийц
06. Держи своих врагов ближе
07. Штат против Квина
08. Учёный
09. Три призрака
10. Радиус поражения (Blast Radius)
11. Слепая зона (Blind Spot)
12. Волнения (Tremors)
13. Наследница демона (Heir to the Demon)
14. Время смерти (Time of Death)
15. Обещание (The Promise)
16. Отряд самоубийц (Suicide Squad)
17. Хищные птицы (Birds of Prey)
18. Дефстроук (Deathstroke)
19. Человек в капюшоне (The Man Under the Hood)
20. В ярости (Seeing Red)
21. Город в крови (City of Blood)
22. Улицы в огне (Streets of Fire)
23. Немыслимое (Unthinkable)

Инструкция по замене старого торрент файла на новый

Внимание! Раздача ведётся путём добавления новых серий, при каждом добавлении создаётся новый торрент. Чтобы начать докачку новой серии, пользователям необходимо сделать следующее:
(1) остановить скачивание,
(2) удалить старый торрент у себя из клиента (старые серии удалять не надо),
(3) скачать новый торрент и запустить его у себя в клиенте вместо старого, при этом указать клиенту путь в старую папку куда и должно происходить скачивание новых серий.
Ваш клиент при этом должен произвести хеширование (проверку) старой папки (если не производит сам - помогите ему сделать это), и будет докачивать только те серии которых у вас ещё нет. Старые серии при этом не удаляются, а продолжают раздаваться!
Если вы уже удалили старые серии, то предотвратить повторную закачку старых серий можно, отжав галочку в соответствующих местах при запуске нового торрента. По возможности, желательно не удалять старые серии как можно дольше чтобы релизёр не столько продолжал раздавать старые серии, а смог сконцентрироваться на новых.

MediaInfo

Расположение: E:\СЕРИАЛЫ\Arrow.S02.rus.LostFilm\Arrow.S02E01.rus.LostFilm.TV.avi
Имя файла: Arrow.S02E01.rus.LostFilm.TV.avi
Формат файла: .avi (AVI)
Размер файла: 600.45 MB
Длительность: 42mn 6s
Навигация по главам: Нет
Битрейт (все потоки): 1 993 Kbps
Тип битрейта (все потоки): Variable
Создан при помощи: Nandub v1.0rc2
Использовалась библиотека: Nandub build 1853/release
Обложка: Отсутствует
Название: Arrow.S02E03.rus.LostFilm.TV
Тип потока: Видео
Длительность: 00:42:06
Кодек: MPEG-4 Visual
Кодек/профиль: Simple@L3
Кодек/ID: XVID
Размеры изображения: 720 x 400 (16:9)
Частота кадров: 23.976 fps
Размер потока: 540 MiB (90%)
Битрейт: 1 792 Kbps
Метод сжатия: Lossy
Библиотека кодирования: XviD 1.2.1 (UTC 2008-12-04)
Цветовое пространство: YUV
Тип развёртки: Progressive
Глубина: 8 bits
Тип потока: Звук #1
Длительность: 00:42:06.864
Кодек: MPEG Audio
Кодек/профиль: Layer 3
Кодек/ID: 55
Частота дискретизации: 48.0 KHz
Каналов: 2 channels
Битрейт: 192 Kbps
Битрейт/тип: Variable
Размер потока: 56.7 MiB (9%)
Метод сжатия: Lossy
Программа: LAME3.97b
Настройки программы: -m j -V 4 -q 3 -lowpass 18.6 --abr 192

Скриншоты


_________________
[Торрент-статистика]
[Профиль]  [ЛС] 
Показать сообщения:    
Ответить на тему

Текущее время: Сегодня 05:07

Часовой пояс: GMT + 4



Вы не можете начинать темы
Вы не можете отвечать на сообщения
Вы не можете редактировать свои сообщения
Вы не можете удалять свои сообщения
Вы не можете голосовать в опросах
Вы не можете прикреплять файлы к сообщениям
Вы не можете скачивать файлы