Лютер / Luther/ сезон 2/ серии 01-04 из 04 (Браян Кирк) [2011 г., Драма, криминал, детектив, WEB-DLRip] Fox Crime

Ответить на тему
 
Автор
Сообщение

3232fox ®

Пол:

Стаж: 5 лет 8 месяцев

Сообщений: 606

Репутация: 424 [+] [-]

Откуда: Крым,Россия

Пост 09-Июл-2013 23:53

[Цитировать] 

-Лютер / Luther-Год выпуска: 2011
Страна: Великобритания
Жанр: Драма, криминал, детектив
Продолжительность: 01:00:00 х4
Перевод: Профессиональный (многоголосый, закадровый) Fox Crime-Режиссер: Браян Кирк-В ролях: Идрис Эльба, Рут Уилсон, Стивен Макинтош, Индира Варма, Саския Ривз, Уоррен Браун, Пол МакГэнн и Дермот Краули-Описание: Драматическая психологическая картина, в которой рассказывается о детективе, обладающем гениальными способностями в своём деле, однако скрывающем своих внутренних демонов. На самом деле он способен на такие же страшные преступления, что и те отбросы общества, за которыми он охотится…-Тип релиза: WEB-DLRip
Контейнер: AVI
Видео кодек: DivX
Аудио кодек: MP3 (MPEG1 Layer 3)
Видео: 720x400 (16:9), 23.976 fps, ~1200 kbps, ~0.175 bit/pixel
Аудио: Rus: 48 kHz,MPEG Layer 3, 2 ch, ~128 kbps-

MI

General
Complete name : G:\видео\luther.s01.kubik.v.kube\luther.s01e01.hdtv.rus.eng.novafilm.tv.avi
Format : AVI
Format/Info : Audio Video Interleave
File size : 601 MiB
Duration : 58mn 12s
Overall bit rate : 1 444 Kbps
Writing application : VirtualDubMod 1.5.10.2 (build 2542/release)
Writing library : VirtualDubMod build 2542/release
Video
ID : 0
Format : MPEG-4 Visual
Format settings, BVOP : Yes
Format settings, QPel : No
Format settings, GMC : No warppoints
Format settings, Matrix : Default (H.263)
Muxing mode : Packed bitstream
Codec ID : DX50
Codec ID/Hint : DivX 5
Duration : 58mn 12s
Bit rate : 1 173 Kbps
Width : 624 pixels
Height : 352 pixels
Display aspect ratio : 16:9
Frame rate : 25.000 fps
Color space : YUV
Chroma subsampling : 4:2:0
Bit depth : 8 bits
Scan type : Progressive
Compression mode : Lossy
Bits/(Pixel*Frame) : 0.214
Stream size : 488 MiB (81%)
Writing library : DivX 6.8.5 (UTC 2009-08-20)
Audio #1
ID : 1
Format : MPEG Audio
Format version : Version 1
Format profile : Layer 3
Mode : Joint stereo
Mode extension : MS Stereo
Codec ID : 55
Codec ID/Hint : MP3
Duration : 58mn 12s
Bit rate mode : Constant
Bit rate : 128 Kbps
Channel(s) : 2 channels
Sampling rate : 48.0 KHz
Compression mode : Lossy
Stream size : 53.3 MiB (9%)
Alignment : Aligned on interleaves
Interleave, duration : 40 ms (1.00 video frame)
Interleave, preload duration : 504 ms
Audio #2
ID : 2
Format : MPEG Audio
Format version : Version 1
Format profile : Layer 3
Mode : Joint stereo
Mode extension : MS Stereo
Codec ID : 55
Codec ID/Hint : MP3
Duration : 58mn 12s
Bit rate mode : Constant
Bit rate : 128 Kbps
Channel(s) : 2 channels
Sampling rate : 48.0 KHz
Compression mode : Lossy
Stream size : 53.3 MiB (9%)
Alignment : Aligned on interleaves
Interleave, duration : 40 ms (1.00 video frame)
Interleave, preload duration : 504 ms

Скриншоты



Последний раз редактировалось: 3232fox (2013-08-08 13:58), всего редактировалось 1 раз
[Торрент-статистика]
[Профиль]  [ЛС] 

3232fox ®

Пол:

Стаж: 5 лет 8 месяцев

Сообщений: 606

Репутация: 424 [+] [-]

Откуда: Крым,Россия

Пост 08-Авг-2013 00:48 (спустя 29 дней)

[Цитировать] 

Обновил,посколько прежний торент закрылся
[Торрент-статистика]
[Профиль]  [ЛС] 
Показать сообщения:    
Ответить на тему

Текущее время: Сегодня 04:40

Часовой пояс: GMT + 4



Вы не можете начинать темы
Вы не можете отвечать на сообщения
Вы не можете редактировать свои сообщения
Вы не можете удалять свои сообщения
Вы не можете голосовать в опросах
Вы не можете прикреплять файлы к сообщениям
Вы не можете скачивать файлы