Парк Авеню 666 / 1 сезон / (1-13 серия из 13) / 666 Park Avenue (Роберт Данкан МакНил) [2012 г., Ужасы, Мистика, Драма, WEBRip]

Ответить на тему
 
Автор
Сообщение

3232fox ®

Пол:

Стаж: 5 лет 8 месяцев

Сообщений: 606

Репутация: 424 [+] [-]

Откуда: Крым,Россия

Пост 07-Июл-2013 00:07

[Цитировать] 

-Парк Авеню 666 / 1 сезон / (1-13 серия из 13) / 666 Park Avenue-Год выпуска: 2012
Страна: США
Жанр: Ужасы, Мистика, Драма
Продолжительность: 13 х 00:43
Перевод: Профессиональный (многоголосый, закадровый)|LostFilm|-Режиссер: Роберт Данкан МакНил-В ролях: Рэйчел Тейлор, Дэйв Эннэйбл, Мерседес Масун, Хелена Мэттссон, Ванесса Уильямс, Терри О’Куинн, Роберт Баккли, Саманта Джейд Логан, Кейтлинн Бэйли, Гейб Эрнандез-Описание: Молодая семейная пара переезжает со среднего Запада в центр Нью-Йорка. Взявшись за работу управляющих менеджеров престижного жилого здания в престижном районе города супруги намерены наладить жизнь и осуществить американскую мечту. На пути к поставленной цели присутствует небольшая проблема. Дело в том, что все жильцы управляемого ими здания продали душу Сатане, который охотно исполняет все их самые скверные пожелания..-Тип релиза: WEBRip
Контейнер: AVI
Видео кодек: DivX
Аудио кодек: MP3 (MPEG1 Layer 3)
Видео: 720x400 (16:9), 23.976 fps, ~1200 kbps, ~0.175 bit/pixel
Аудио: Аудио Rus: 48 kHz, 2 ch, ~128 kbps-

Доп. информация

Телеканал ABC прикрыл свой новый сериал — триллер 666 Park Avenue («Парк-авеню, 666») с Терри О'Куинном в глвной роли. Шоу собирало в среднем по 5 млн зрителей, и такие результаты показались руководству телеканала неудовлетворительными. Сериал будет продолжать свою трансляцию в привычное время — 22.00 на телеканале ABC — пока в эфир не выйдет последний, тринадцатый эпизод.

Скриншоты

MI

G:\видео\666 Парк Авеню (Сезон 1) LostFilm\666.park.avenue.s01e01.WEB-DLRip.LostFilm.avi
General
Complete name : G:\видео\666 Парк Авеню (Сезон 1) LostFilm\666.park.avenue.s01e01.WEB-DLRip.LostFilm.avi
Format : AVI
Format/Info : Audio Video Interleave
File size : 450 MiB
Duration : 42mn 57s
Overall bit rate : 1 465 Kbps
Writing application : VirtualDubMod 1.5.10.3 | www.virtualdub-fr.org || (build 2550/release)
Writing library : VirtualDubMod build 2550/release
Video #0
ID : 0
Format : MPEG-4 Visual
Format profile : Advanced Simple@L5
Format settings, BVOP : Yes
Format settings, QPel : No
Format settings, GMC : No warppoints
Format settings, Matrix : Default (MPEG)
Codec ID : XVID
Codec ID/Hint : XviD
Duration : 42mn 56s
Bit rate : 1 195 Kbps
Width : 720 pixels
Height : 400 pixels
Display aspect ratio : 16:9
Frame rate : 23.976 fps
Resolution : 8 bits
Colorimetry : 4:2:0
Scan type : Progressive
Bits/(Pixel*Frame) : 0.173
Stream size : 367 MiB (82%)
Writing library : XviD 64
Audio #1
ID : 1
Format : MPEG Audio
Format version : Version 1
Format profile : Layer 3
Mode : Joint stereo
Format_Settings_ModeExtension : MS Stereo
Codec ID : 55
Codec ID/Hint : MP3
Duration : 42mn 57s
Bit rate mode : Constant
Bit rate : 128 Kbps
Channel(s) : 2 channels
Sampling rate : 48.0 KHz
Stream size : 39.3 MiB (9%)
Alignment : Aligned on interleaves
Interleave, duration : 42 ms (1.00 video frame)
Interleave, preload duration : 504 ms
Writing library : LAME3.98r
Encoding settings : -m j -V 4 -q 0 -lowpass 17 -b 128
Audio #2
ID : 2
Format : MPEG Audio
Format version : Version 1
Format profile : Layer 3
Mode : Joint stereo
Format_Settings_ModeExtension : MS Stereo
Codec ID : 55
Codec ID/Hint : MP3
Duration : 42mn 56s
Bit rate mode : Constant
Bit rate : 128 Kbps
Channel(s) : 2 channels
Sampling rate : 48.0 KHz
Stream size : 39.3 MiB (9%)
Alignment : Aligned on interleaves
Interleave, duration : 42 ms (1.00 video frame)
Interleave, preload duration : 504 ms
Writing library : LAME3.98r
Encoding settings : -m j -V 4 -q 2 -lowpass 17 -b 128
[Торрент-статистика]
[Профиль]  [ЛС] 
Показать сообщения:    
Ответить на тему

Текущее время: Сегодня 08:35

Часовой пояс: GMT + 4



Вы не можете начинать темы
Вы не можете отвечать на сообщения
Вы не можете редактировать свои сообщения
Вы не можете удалять свои сообщения
Вы не можете голосовать в опросах
Вы не можете прикреплять файлы к сообщениям
Вы не можете скачивать файлы