Под куполом / Under the Dome / 1 сезон, серии 1-13 из 13 (Нильс Арден Оплев) [2013 г., фантастика, ужасы, WEB-DLRip 1080p] (Первый, LostFilm, UkrDUB)

Ответить на тему
 
Автор
Сообщение

alien.09 ®

Пол:

Стаж: 5 лет 8 месяцев

Сообщений: 627

Репутация: 569 [+] [-]

Пост 28-Июн-2013 00:42

[Цитировать] 

--Под куполом / Under the Dome (1 сезон, полный; серии 13 из 13)--Год выпуска: 2013
Страна: США
Жанр: фантастика, ужасы
Продолжительность: 13x ~ 00:43:00
Перевод: Профессиональный (многоголосый, закадровый) Первый, LostFilm, UkrDUB-Режиссер: Нильс Арден Оплев, Джек Бендер-В ролях: Майк Фогель, Колин Форд, Аиша Хиндс, Александр Кох, Рашель Лефевр, Натали Мартинез, Дин Норрис, Джолин Парди, Бриттани Робертсон, Николас Стронг, Нед Беллами, Дэйл Рауль, Р. Кейт Харрис, Стив Болдуин, Шерри Боулинг, Кевин Сайзмор, Эндрю Фогель, Джеймс Алком, Линдс Эдвардс, Джефф Фэйи, Кристал Мартинез, Маккензи Линтц-Описание: Обычным погожим осенним днем город Честерс Милл, штат Мэн, оказывается внезапно отрезанным от остального мира невидимым барьером. В купол врезается самолет. Загадочное силовое поле не щадит ни постройки, ни автомобили, ни животных, ни людей. Выехавшие в соседний город по делам не могут вернуться к своим близким. Никто не понимает, что это за барьер, откуда он взялся и исчезнет ли.
Дейл Барбара, ветеран войны в Ираке, а ныне повар, теперь в одной команде с несколькими отважными жителями — Джулией Шамвей, владелицей городской газеты, помощником врача, женщиной и тремя храбрыми детьми. Против них выступает Большой Джим Ренни — местный политический деятель, который для удержания власти не остановится ни перед чем, даже перед убийством, а также его сын со своим личным «скелетом в шкафу». Но главный их противник — сам Купол…-- --Тип релиза: WEB-DL 1080p
Контейнер: MKV
Видео кодек: H.264/AVC
Аудио кодек: MP3 (MPEG1 Layer 3)
Видео: MPEG-4 Visual at ~4826 Кбит/сек, 1920 x 1080 (1.800) at 23.976 fps
Аудио: #1 (Rus): AC3, 2ch (L, R), 192 kb/s - первый канал
Аудио: #2 (Rus): AC3, 2ch (L, R), 384 kb/s - LostFilm
Аудио: #3 (Ukr): AC3, 2ch (L, R), 192 kb/s - украинский
Аудио: #4 (Eng): AC3, 6ch (L, C, R; Side: L, R; LFE), 384 kb/s - английский
Вид субтитров: Вшитые подключаемые
субтитры: Русский, Украинский, Английский

MI Report

Общее
Уникальный идентификатор : 250059419614169588199285369187253832018 (0xBC1FB141DA9F621C8042902E7B574952)
Полное имя : Под куполом_Under.the.Dome_S01E1_Пилот _1080p_WEB-DL.DD5.1.H.264(1;Lost;Ukr.).mkv
Формат : Matroska
Версия формата : Version 4 / Version 2
Размер файла : 1,82 Гбайт
Продолжительность : 42 м.
Общий поток : 6100 Кбит/сек
Дата кодирования : UTC 2013-09-06 11:06:18
Программа кодирования : mkvmerge v6.3.0 ('You can't stop me!') built on Jun 28 2013 20:09:41
Библиотека кодирования : libebml v1.3.0 + libmatroska v1.4.0
Видео
Идентификатор : 1
Формат : AVC
Формат/Информация : Advanced Video Codec
Профиль формата : High@L4.0
Параметр CABAC формата : Да
Параметр ReFrames формата : 4 кадра
Идентификатор кодека : V_MPEG4/ISO/AVC
Продолжительность : 42 м.
Битрейт : 4826 Кбит/сек
Ширина : 1920 пикселей
Высота : 1080 пикселей
Соотношение сторон : 16:9
Частота кадров : 23,976 кадра/сек
Цветовое пространство : YUV
Субдискретизация насыщенности : 4:2:0
Битовая глубина : 8 бит
Тип развёртки : Прогрессивная
Бит/(Пиксели*Кадры) : 0.097
Размер потока : 1,44 Гбайт (79%)
Язык : English
Default : Да
Forced : Нет
Основные цвета : BT.709-5, BT.1361, IEC 61966-2-4, SMPTE RP177
Характеристики трансфера : BT.709-5, BT.1361
Коэффициенты матрицы : BT.709-5, BT.1361, IEC 61966-2-4 709, SMPTE RP177
Аудио #1
Идентификатор : 2
Формат : AC-3
Формат/Информация : Audio Coding 3
Расширение режима : CM (complete main)
Параметр Endianness формата : Big
Идентификатор кодека : A_AC3
Продолжительность : 42 м.
Вид битрейта : Постоянный
Битрейт : 192 Кбит/сек
Каналы : 2 канала
Расположение каналов : Front: L R
Частота : 48,0 КГц
Битовая глубина : 16 бит
Метод сжатия : С потерями
Размер потока : 58,8 Мбайт (3%)
Заголовок : Первый канал AC3,2ch(L, R) 192 kb/s
Язык : Russian
Default : Да
Forced : Да
Аудио #2
Идентификатор : 3
Формат : AC-3
Формат/Информация : Audio Coding 3
Расширение режима : CM (complete main)
Параметр Endianness формата : Big
Идентификатор кодека : A_AC3
Продолжительность : 42 м.
Вид битрейта : Постоянный
Битрейт : 384 Кбит/сек
Каналы : 2 канала
Расположение каналов : Front: L R
Частота : 48,0 КГц
Битовая глубина : 16 бит
Метод сжатия : С потерями
Размер потока : 118 Мбайт (6%)
Заголовок : LostFilm AC3, 2ch (L,R), 384 kb/s
Язык : Russian
Default : Нет
Forced : Нет
Аудио #3
Идентификатор : 4
Формат : AC-3
Формат/Информация : Audio Coding 3
Расширение режима : CM (complete main)
Параметр Endianness формата : Big
Идентификатор кодека : A_AC3
Продолжительность : 42 м.
Вид битрейта : Постоянный
Битрейт : 192 Кбит/сек
Каналы : 2 канала
Расположение каналов : Front: L R
Частота : 48,0 КГц
Битовая глубина : 16 бит
Метод сжатия : С потерями
Размер потока : 58,8 Мбайт (3%)
Заголовок : Ukrainian AC3, 2ch (L, R), 192 кбіт/с
Язык : Ukrainian
Default : Нет
Forced : Нет
Аудио #4
Идентификатор : 5
Формат : AC-3
Формат/Информация : Audio Coding 3
Расширение режима : CM (complete main)
Параметр Endianness формата : Big
Идентификатор кодека : A_AC3
Продолжительность : 42 м.
Вид битрейта : Постоянный
Битрейт : 384 Кбит/сек
Каналы : 6 каналов
Расположение каналов : Front: L C R, Side: L R, LFE
Частота : 48,0 КГц
Битовая глубина : 16 бит
Метод сжатия : С потерями
Размер потока : 118 Мбайт (6%)
Заголовок : English
Язык : English
Default : Нет
Forced : Нет
Текст #1
Идентификатор : 6
Формат : UTF-8
Идентификатор кодека : S_TEXT/UTF8
Идентификатор кодека/Информация : UTF-8 Plain Text
Заголовок : Russian
Язык : Russian
Default : Нет
Forced : Нет
Текст #2
Идентификатор : 7
Формат : UTF-8
Идентификатор кодека : S_TEXT/UTF8
Идентификатор кодека/Информация : UTF-8 Plain Text
Заголовок : SRT@Ukrainian
Язык : Ukrainian
Default : Нет
Forced : Нет
Текст #3
Идентификатор : 8
Формат : UTF-8
Идентификатор кодека : S_TEXT/UTF8
Идентификатор кодека/Информация : UTF-8 Plain Text
Заголовок : English
Язык : English
Default : Нет
Forced : Нет

Скриншоты


Внимание! Раздача ведётся путём добавления новых серий

При каждом добавлении создаётся новый торрент. Чтобы начать докачку новой серии, пользователям необходимо сделать следующее:
  • Остановить скачивание,
  • Удалить старый торрент у себя из клиента (старые серии удалять не надо),
  • Скачать новый торрент и запустить его у себя в клиенте вместо старого, при этом указать клиенту путь в старую папку куда и должно происходить скачивание новых серий.
Ваш клиент при этом должен произвести хеширование (проверку) старой папки (если не производит сам - помогите ему сделать это), и будет докачивать только те серии которых у вас ещё нет. Старые серии при этом не удаляются, а продолжают раздаваться!
Если вы уже удалили старые серии, то предотвратить повторную закачку старых серий можно, отжав галочку в соответствующих местах при запуске нового торрента. По возможности, желательно не удалять старые серии как можно дольше чтобы релизёр не столько продолжал раздавать старые серии, а смог сконцентрироваться на новых.

_________________
Правообладатели, убейтесь об эту надпись.


Последний раз редактировалось: alien.09 (2014-02-10 22:36), всего редактировалось 1 раз
[Торрент-статистика]
[Профиль]  [ЛС] 
Показать сообщения:    
Ответить на тему

Текущее время: Сегодня 16:23

Часовой пояс: GMT + 4



Вы не можете начинать темы
Вы не можете отвечать на сообщения
Вы не можете редактировать свои сообщения
Вы не можете удалять свои сообщения
Вы не можете голосовать в опросах
Вы не можете прикреплять файлы к сообщениям
Вы не можете скачивать файлы