Евгений Осин - ... в "России" (Live) - 1994, (Pop), FLAC (image + .cue), lossless

Ответить на тему
 
Автор
Сообщение

ED_Sln ®

Пол:

Стаж: 9 лет 5 месяцев

Сообщений: 677

Репутация: 346 [+] [-]

Откуда: Сибирь

Пост 12-Июн-2013 23:31

[Цитировать] 

Евгений Осин - ... в "России" (Live)
Жанр: Pop
Страна: Россия
Год выпуска: 1994
Контейнер: FLAC (image + .cue)
Битрейт аудио: lossless
Продолжительность: 50:59
Трэклист:
01. 8 Марта (4:22)
02. Друзьям (3:21)
03. Не ходи со мною рядом (3:07)
04. Не верю (3:45)
05. Осенний вечер (2:55)
06. Осень (3:59)
07. Стоп, стоп люди... (5:24)
08. Я тебя люблю (3:35)
09. Для чего (3:54)
10. Девчонки семидесятых (4:56)
11. Солнце (3:04)
12. Студентка-практикантка (5:30)
13. Плачет девушка в автомате... (3:07)-Доп. информация: Эта пластинка несколько необычная. Необычность ее заключается в том, что она записана не в студии, как это принято, а на концерте. На концерте, в котором звучали как старые, полюбившиеся песни первого альбома, так и новые, которые все-таки будут записаны в студийном варианте и дойдут до слушателя уже на следущей, третьей по счету, пластинке этого популярного певца. А Вам предоставляется возможность (в заочном варианте) побывать на одном из концертов Евгения Осина и послушать его сольную программу, составленную на основе двух студийных проектов.
Концерт озвучен и записан компанией "Сайленс Про". Запись и цифровой мастеринг произведены на оборудовании "Alesis ADAT" и "Digidesign".-Евгений Осин - вокал, гитара
Александр Алексеев - бас-гитара, вокал
Вадим Вершинин - гитара
Сергей Тененбаум - клавишные
Михаил Шевцов - клавишные
Алексей Маслов - барабаны
Елена Куштанина - вокал, хореография
Раиса Закирова - вокал, хореография
Анатолий Ососов - звукорежиссер
Игорь Клименков - запись на концерте
Андрей Субботин (студия ВКТ) - сведение

Лог EAC

Exact Audio Copy V0.99 prebeta 5 from 4. May 2009
EAC extraction logfile from 22. July 2009, 23:33
Евгений Осин / ... в "России"
Used drive : PLEXTOR DVDR PX-820A Adapter: 5 ID: 0
Read mode : Secure
Utilize accurate stream : Yes
Defeat audio cache : Yes
Make use of C2 pointers : No
Read offset correction : 48
Overread into Lead-In and Lead-Out : No
Fill up missing offset samples with silence : Yes
Delete leading and trailing silent blocks : No
Null samples used in CRC calculations : Yes
Used interface : Native Win32 interface for Win NT & 2000
Used output format : User Defined Encoder
Selected bitrate : 320 kBit/s
Quality : High
Add ID3 tag : No
Command line compressor : C:\Programme\FLAC\flac.exe
Additional command line options : -8 -V -T "ARTIST=%a" -T "TITLE=%t" -T "ALBUM=%g" -T "DATE=%y" -T "TRACKNUMBER=%n" -T "GENRE=%m" -T "COMMENT=EAC FLAC -8" %s
TOC of the extracted CD
Track | Start | Length | Start sector | End sector
---------------------------------------------------------
1 | 0:00.10 | 4:22.10 | 10 | 19669
2 | 4:22.20 | 3:21.32 | 19670 | 34776
3 | 7:43.52 | 3:06.53 | 34777 | 48779
4 | 10:50.30 | 3:44.52 | 48780 | 65631
5 | 14:35.07 | 2:55.23 | 65632 | 78779
6 | 17:30.30 | 3:59.37 | 78780 | 96741
7 | 21:29.67 | 5:23.50 | 96742 | 121016
8 | 26:53.42 | 3:34.50 | 121017 | 137116
9 | 30:28.17 | 3:54.33 | 137117 | 154699
10 | 34:22.50 | 4:56.27 | 154700 | 176926
11 | 39:19.02 | 3:03.43 | 176927 | 190694
12 | 42:22.45 | 5:29.52 | 190695 | 215421
13 | 47:52.22 | 3:06.50 | 215422 | 229421
Range status and errors
Selected range
Filename I:\EAC\1994- ... в России\Евгений Осин - ... в России.wav
Peak level 93.5 %
Range quality 99.9 %
Test CRC F31AB02F
Copy CRC F31AB02F
Copy OK
No errors occurred
AccurateRip summary
Track 1 not present in database
Track 2 not present in database
Track 3 not present in database
Track 4 not present in database
Track 5 not present in database
Track 6 not present in database
Track 7 not present in database
Track 8 not present in database
Track 9 not present in database
Track 10 not present in database
Track 11 not present in database
Track 12 not present in database
Track 13 not present in database
None of the tracks are present in the AccurateRip database
End of status report

_________________

[Торрент-статистика]
[Профиль]  [ЛС] 
Показать сообщения:    
Ответить на тему

Текущее время: Сегодня 06:39

Часовой пояс: GMT + 4



Вы не можете начинать темы
Вы не можете отвечать на сообщения
Вы не можете редактировать свои сообщения
Вы не можете удалять свои сообщения
Вы не можете голосовать в опросах
Вы не можете прикреплять файлы к сообщениям
Вы не можете скачивать файлы