Тайны Смолвиля / Smallville / Сезон 7 / Серии 1-20 (20) [2007-2008, фантастика, драма, BDRip 720p] MVO (СТС) + DVO (AXN-Sci-Fi) + Original + Subs (Rus, Eng)

Ответить на тему
 
Автор
Сообщение

kaliasa ®

Пол:

Стаж: 6 лет 8 месяцев

Сообщений: 113

Репутация: 84 [+] [-]

Пост 30-Май-2013 22:38

[Цитировать] 

Тайны Смолвиля / Smallville
Сезон 7, Серия 01-20
- Год выпуска: 2007
Страна: USA / Canada
Жанр: Фантастика, Приключения, Молодежная драма
Продолжительность: ~ 00:43:00 x 20
Перевод 1: профессиональный многоголосый закадровый (СТС)
Перевод 2: профессиональный двухголосый закадровый (AXN-Sci-Fi)
Субтитры: русские, английские-Режиссер: Альфред Гоф / Alfred Gough, Майлз Миллар / Miles Millar-В ролях: Том Уэллинг / Tom Welling, Майкл Розенбаум / Michael Rosenbaum, Джон Гловер / John Glover, Эрика Дюранс / Erica Durance, Лаура Вандервурт / Laura Vandervoort, Кристин Кройк / Kristin Kreuk, Эллисон Мэк / Allison Mack, Аарон Эшмор / Aaron Ashmore-

Описание

Кларк побеждает Бизарро с помощью Солнца и нового «друга» с Марса, который является «Наёмным телохранителем» Кал-Эл’a, после чего находит корабль девушки с Криптона. Оказывается, что она его кузина — Кара. Кара поселяется у Кларка и представляется под именем Кара Кент. Хлоя умирает, спасая свою сестру, но потом вдруг оживает в морге. Лекса арестовывают за убийство жены. Кларк уже почти смирился со смертью любимой Ланы, но оказывается, что она жива. Она подстроила свою смерть, а всё это время пряталась в Шанхае. Лекс даёт Лане развод, оставляя половину своего состояния. Лана возвращается в Смолвиль и приходит к Кларку.
Кларк активизирует кристалл Кары и из него появляются Зор-Эл (брат Джор-Эл’a) и Лара. Зор-Эл пытается уничтожить людей, затмив солнце. Кара теряет память и оказывается в другом городе. Возвращается Биззаро. Бизарро живёт жизнью Кларка с Ланой и выслеживает Брейниака, в то время, как Кларк заморожен в Крепости. Лана наслаждается «новым Кларком» и делится информацией, которую она собрала о серийном убийце, который высасывает из жертв все микроэлементы. Они вдвоём приходят к выводу, что это должен быть Брейниак и Бизарро отправляется на его поиски.
Тем временем в Daily Planet появляется новый главный редактор. Как позже оказывается — это младший брат Лекса, которого он клонировал. Позже, когда он узнает, что он всего лишь клон, он начинает общаться с Лайонелом. Лютор старший решает признать клона своим родным сыном, наравне с Александром, однако не скрывает, что симпатизирует клону. Лекс убивает клона.
Лекс находит Кару. Лайнел использует криптонит против Кларка, и теряет его уважение. Джор-Эл восстанавливает память и силы Каре. Лекс узнает, что Лайнел уже давно искал странника (Кларка) и состоял в обществе его защиты. У этого общества есть тайная шкатулка, один из ключей которой у Лайнела. Лекс убивает отца за этот ключ. Оказывается, что ключ Лайонел успел передать Хлое, которая сама того не подозревала. Лекс забирает у неё ключ. Кларк, узнав это, приходит в особняк Лекса, но не находит там ключ. Между ними состоялся разговор. Лекс обвиняет Кларка в том, что тот отнял у него любовь отца, девушку, друзей, лишил даже надежды на нормальную семью и клянётся приложить все усилия, чтобы разрушить счастливую жизнь Кента. На похороны Лекс никого не пустил, но Кларк всё равно приходит.
Неожиданно объявляется Брейниак (Милтон Файн), который парализует Лану. Кларк уничтожает Брейниака, но Лана, очнувшись от комы, покидает Кента, оставив ему видеозапись о причине своего поступка.
На могиле Лайонела Лютора между двумя бывшими друзьями происходит самый главный разговор. Кроме того, он клянётся раскрыть тайну Кларка. Сезон оканчивается тем, что Кларк остаётся со своей болью, а Лекс в то же время находит древний инопланетный артефакт и узнаёт имя криптонца. Отправившись в Арктику, Лекс обнаруживает крепость. Кларк прибегает туда слишком поздно. Артефакт лишает его сил, крепость рушится, Лекс и Кларк остаются под завалами…
-Сэмпл: http://multi-up.com/830438-Тип релиза: BDRip
Контейнер: MKV
Видео кодек: H264 (AVC)
Аудио кодек: AC3 (Dolby Digital)
Видео: AVC, 1280x720 (16:9), 23.976fps, ~ 6 650 kbps, 0.301 bit/pixel
Аудио 1: AC3, 48 KHz. 16 bit, 2 ch, 192 kbps [Русский, СТС]
Аудио 2: AC3, 48 KHz. 16 bit, 2 ch, 192 kbps [Русский, ANX-Sci-Fi]
Аудио 3: AC3, 48 KHz, 16 bit, 6 ch, 640 kbps [Английский]-

Mi

Код:
General
Unique ID : 246732349539005108464514661711302263619 (0xB99EEC09ACA1FB2787806A64AF6A8343)
Complete name : Smallville.S07E01.Bizarro.720p.Bluray.2xRus.Eng.Sub.mkv
Format : Matroska
Format version : Version 2
File size : 2.26 GiB
Duration : 42mn 12s
Overall bit rate : 7 666 Kbps
Movie name : Smallville Season 07 Episode 01 Bizarro - Бизарро [Russian - AXN-Sci-Fi | CTC + English + Sub]
Encoded date : UTC 2013-02-12 18:14:05
Writing application : mkvmerge v5.8.0 ('No Sleep / Pillow') built on Sep 2 2012 15:37:04
Writing library : libebml v1.2.3 + libmatroska v1.3.0
Video
ID : 1
Format : AVC
Format/Info : Advanced Video Codec
Format profile : High@L3.1
Format settings, CABAC : Yes
Format settings, ReFrames : 5 frames
Codec ID : V_MPEG4/ISO/AVC
Bit rate : 6 642 Kbps
Width : 1 280 pixels
Height : 720 pixels
Display aspect ratio : 16:9
Frame rate mode : Variable
Original frame rate : 23.976 fps
Color space : YUV
Chroma subsampling : 4:2:0
Bit depth : 8 bits
Scan type : Progressive
Bits/(Pixel*Frame) : 0.301
Title : Smallville S07E01 Bizarro
Writing library : x264 core 65 r1040M 1591275
Encoding settings : cabac=1 / ref=5 / deblock=1:-2:-2 / analyse=0x3:0x113 / me=umh / subme=9 / psy_rd=1.0:0.0 / mixed_ref=1 / me_range=24 / chroma_me=1 / trellis=2 / 8x8dct=1 / cqm=0 / deadzone=21,11 / chroma_qp_offset=-2 / threads=3 / nr=0 / decimate=0 / mbaff=0 / bframes=6 / b_pyramid=1 / b_adapt=2 / b_bias=0 / direct=3 / wpredb=1 / keyint=250 / keyint_min=25 / scenecut=40(pre) / rc=2pass / bitrate=6642 / ratetol=2.0 / qcomp=0.60 / qpmin=10 / qpmax=51 / qpstep=4 / cplxblur=20.0 / qblur=0.5 / ip_ratio=1.40 / pb_ratio=1.30 / aq=1:1.00
Language : English
Default : Yes
Forced : No
Audio #1
ID : 2
Format : AC-3
Format/Info : Audio Coding 3
Mode extension : CM (complete main)
Format settings, Endianness : Big
Codec ID : A_AC3
Duration : 42mn 12s
Bit rate mode : Constant
Bit rate : 192 Kbps
Channel(s) : 2 channels
Channel positions : Front: L R
Sampling rate : 48.0 KHz
Bit depth : 16 bits
Compression mode : Lossy
Stream size : 58.0 MiB (3%)
Title : MVO CTC @ AC3 2.0 192 kbps
Language : Russian
Default : No
Forced : No
Audio #2
ID : 3
Format : AC-3
Format/Info : Audio Coding 3
Mode extension : CM (complete main)
Format settings, Endianness : Big
Codec ID : A_AC3
Duration : 42mn 12s
Bit rate mode : Constant
Bit rate : 192 Kbps
Channel(s) : 2 channels
Channel positions : Front: L R
Sampling rate : 48.0 KHz
Bit depth : 16 bits
Compression mode : Lossy
Stream size : 58.0 MiB (3%)
Title : MVO AXN Sci-Fi @ AC3 2.0 192 kbps
Language : Russian
Default : No
Forced : No
Audio #3
ID : 4
Format : AC-3
Format/Info : Audio Coding 3
Mode extension : CM (complete main)
Format settings, Endianness : Big
Codec ID : A_AC3
Duration : 42mn 12s
Bit rate mode : Constant
Bit rate : 640 Kbps
Channel(s) : 6 channels
Channel positions : Front: L C R, Side: L R, LFE
Sampling rate : 48.0 KHz
Bit depth : 16 bits
Compression mode : Lossy
Stream size : 193 MiB (8%)
Title : Original
Language : English
Default : No
Forced : No
Text #1
ID : 5
Format : UTF-8
Codec ID : S_TEXT/UTF8
Codec ID/Info : UTF-8 Plain Text
Title : by Satellite
Language : Russian
Default : No
Forced : No
Text #2
ID : 6
Format : UTF-8
Codec ID : S_TEXT/UTF8
Codec ID/Info : UTF-8 Plain Text
Title : Original
Language : English
Default : No
Forced : No
-

Скриншоты


- --=-1 сезон-=- -=-6 сезон-=- -=-7 сезон-=- -=- 8 сезон-=--
[Торрент-статистика]
[Профиль]  [ЛС] 
Показать сообщения:    
Ответить на тему

Текущее время: Сегодня 07:50

Часовой пояс: GMT + 4



Вы не можете начинать темы
Вы не можете отвечать на сообщения
Вы не можете редактировать свои сообщения
Вы не можете удалять свои сообщения
Вы не можете голосовать в опросах
Вы не можете прикреплять файлы к сообщениям
Вы не можете скачивать файлы