Менталист / The Mentalist / Сезон: 5 / Серии: 1-22 (22) (Крис Лонг) [2012, драма, криминал, WEB-DLRip] (BaibaKo)

Ответить на тему
 
Автор
Сообщение

ArtZak ®

Пол:

Стаж: 6 лет 7 месяцев

Сообщений: 2994

Репутация: 1363 [+] [-]

Откуда: Россия

Пост 15-Апр-2013 01:15

[Цитировать] 

Менталист / The Mentalist Год выпуска: 2012
Страна: США
Жанр: драма, криминал
Продолжительность: 45 минут
Перевод: Профессиональный многоголосый закадровый (Baibako)
Оригинальная дорожка: английская
Русские субтитры: нет
Субтитры: нет
Режиссёр: Крис Лонг
В ролях:
Саймон Бейкер, Робин Танни, Аманда Риджетти, Тим Кенг, Овайн Йомен, Грегори Итцин...
Описание:
Калифорнийское Бюро Расследований (CBI) занимается делом о похищении видного адвоката и лоббиста здания парламента. Директор CBI хочет поручить это дело Джейну, но Патрик пока не уверен, относительно своего будущего в команде, после встречи с Красным Джоном.
Патрик Джейн — детектив и независимый консультант из Калифорнийского Бюро Расследований (КБР), он использует свои отточенные, как лезвие, навыки наблюдения для раскрытия тяжких преступлений. В самом Бюро Джейн известен за частые нарушения протокола, а также за его звездное прошлое: он работал медиумом, однако теперь сам признает, что симулировал паранормальные способности. Роль Джейна в раскрытии целой серии загадочных преступлений высоко ценится коллегами. Но суровая старший агент Тереза Лисбон против того, чтоб Джейн работал с ее отрядом, и то вынужденно признает его успехи, то критикует его за театральность, нарциссизм и отсутствие границ.
Доп. информация:
Перевод: Lub_a
Озвучка: ChrisTref, Татьяна Оболевич, Алексей Кузнецов, Виталий Ткаченко и Александр Фурман
Сведение: igor7831, Baibak
Обложка: tvblog- -Сэмпл
Качество: WEB-DLRip
Формат: AVI
Видео: MPEG4, XviD, 720x400 (16:9), 23.976 fps, 1 299 Kbps (0.188 bit/pixel)
Аудио #1: AC-3, 48.0 KHz, 6 ch, 384 Kbps, CBR [RUS BaibaKo]
Аудио #2: AC-3, 48.0 KHz, 6 ch, 384 Kbps, CBR [ENG]- при поддержке -

MI

General
Complete name : D:\Films\Менталист (5 сезон) 2012 BaibaKo ananasix\Менталист (5 сезон 01 серия) 2012 BaibaKo ananasix.avi
Format : AVI
Format/Info : Audio Video Interleave
File size : 616 MiB
Duration : 41mn 25s
Overall bit rate : 2 081 Kbps
Writing application : VirtualDubMod 1.5.10.2 (build 2540/release)
Writing library : VirtualDubMod build 2540/release
Video
ID : 0
Format : MPEG-4 Visual
Format profile : Advanced Simple@L5
Format settings, BVOP : 1
Format settings, QPel : No
Format settings, GMC : No warppoints
Format settings, Matrix : Default (MPEG)
Codec ID : XVID
Codec ID/Hint : XviD
Duration : 41mn 25s
Bit rate : 1 299 Kbps
Width : 720 pixels
Height : 400 pixels
Display aspect ratio : 16:9
Frame rate : 23.976 fps
Color space : YUV
Chroma subsampling : 4:2:0
Bit depth : 8 bits
Scan type : Progressive
Compression mode : Lossy
Bits/(Pixel*Frame) : 0.188
Stream size : 385 MiB (62%)
Writing library : XviD 1.2.0.dev47 (UTC 2006-11-01)
Audio #1
ID : 1
Format : AC-3
Format/Info : Audio Coding 3
Mode extension : CM (complete main)
Format settings, Endianness : Big
Codec ID : 2000
Duration : 41mn 25s
Bit rate mode : Constant
Bit rate : 384 Kbps
Channel(s) : 6 channels
Channel positions : Front: L C R, Side: L R, LFE
Sampling rate : 48.0 KHz
Bit depth : 16 bits
Compression mode : Lossy
Stream size : 114 MiB (18%)
Alignment : Split accross interleaves
Interleave, duration : 42 ms (1.00 video frame)
Interleave, preload duration : 500 ms
Audio #2
ID : 2
Format : AC-3
Format/Info : Audio Coding 3
Mode extension : CM (complete main)
Format settings, Endianness : Big
Codec ID : 2000
Duration : 41mn 25s
Bit rate mode : Constant
Bit rate : 384 Kbps
Channel(s) : 6 channels
Channel positions : Front: L C R, Side: L R, LFE
Sampling rate : 48.0 KHz
Bit depth : 16 bits
Compression mode : Lossy
Stream size : 114 MiB (18%)
Alignment : Split accross interleaves
Interleave, duration : 42 ms (1.00 video frame)
Interleave, preload duration : 500 ms

Скриншоты

Внимание! Раздача ведётся путём добавления новых серий!

Внимание! Раздача ведётся путём добавления новых серий; при каждом добавлении создётся новый торрент. Чтобы начать докачку новой серии, пользователям необходимо сделать следующее:
(1) остановить скачивание,
(2) удалить старый торрент у себя из клиента (старые серии удалять не надо),
(3) скачать новый торрент и запустить его у себя в клиенте вместо старого, при этом указать клиенту путь в старую папку куда и должно происходить скачивание новых серий.
Ваш клиент при этом должен произвести хеширование (проверку) старой папки (если не производит сам - помогите ему сделать это), и будет докачивать только те серии которых у вас ещё нет. Старые серии при этом не удаляются, а продолжают раздаваться!
Eсли вы уже удалили старые серии, то предотвратить повторную закачку старых серий можно, отжав галочку в соответсвующих местах при запуске нового торрента.
[Торрент-статистика]
[Профиль]  [ЛС] 
Показать сообщения:    
Ответить на тему

Текущее время: Сегодня 03:54

Часовой пояс: GMT + 4



Вы не можете начинать темы
Вы не можете отвечать на сообщения
Вы не можете редактировать свои сообщения
Вы не можете удалять свои сообщения
Вы не можете голосовать в опросах
Вы не можете прикреплять файлы к сообщениям
Вы не можете скачивать файлы