Менталист / The Mentalist / Сезон: 3 / Серии: 1-23 (23) (Крис Лонг, Дэвид Баррет, Дэвид Наттер) [2010 г., драма, детектив, триллер, WEB-DLRip] (ТВ3)

Ответить на тему
 
Автор
Сообщение

ArtZak ®

Пол:

Стаж: 6 лет 10 месяцев

Сообщений: 2957

Репутация: 1364 [+] [-]

Откуда: Россия

Пост 16-Апр-2013 08:12

[Цитировать] 

Менталист / The Mentalist
Полный 3 сезон
-Год выпуска: 2010
Страна: США
Жанр: Драма, детектив, триллер
Продолжительность: ~00:43:00
Перевод: Профессиональный (полное дублирование) ТВ3
Cубтитры: нет
Режиссёр: Крис Лонг, Дэвид Баррет, Дэвид Наттер- -В ролях:
Саймон Бейкер, Робин Танни, Тим Кенг, Овайн Йомэн, Аманда Риджетти, Грегори Итцин, Бодхи Элфмэн, Винн Эверетт, Аластер Маккензи, Крис Таллман и др.
Описание:
Патрик Джейн — детектив и независимый консультант из Калифорнийского Бюро Расследований (КБР), он использует свои отточенные, как лезвие, навыки наблюдения для раскрытия тяжких преступлений. В самом Бюро Джейн известен за частые нарушения протокола, а также за его звездное прошлое: он работал медиумом, однако теперь сам признает, что симулировал паранормальные способности. Роль Джейна в раскрытии целой серии загадочных преступлений высоко ценится коллегами. Но суровый старший агент Тереза Лисбон против того, чтоб Джейн работал с ее отрядом, и то вынужденно признает его успехи, то критикует его за театральность, нарциссизм и отсутствие границ.-Семпл-Качество: WEB-DLRip
Формат: AVI
Видео кодек: XviD
Аудио кодек: MP3
Видео: 720x400 (1.80:1), 23.976 fps, XviD build 50 ~1230 kbps avg, 0.18 bit/pixel
Аудио Rus: 48 kHz, MPEG Layer 3, 2 ch, ~192.00 kbps avg
Аудио Eng: 48 kHz, MPEG Layer 3, 2 ch, ~192.00 kbps avg

Список серий

  • Red Sky at Night / Красное небо в ночи
  • Cackle-Bladder Blood / Фальшивая смерть с поддельной кровью
  • The Blood on His Hands / Кровь на его руках
  • Red Carpet Treatment / По высшему разряду
  • The Red Ponies / Красные кони
  • Pink Chanel Suit / В розовом костюме от "Шанель"
  • Red Hot / Накалённый докрасна
  • Ball of Fire / Пламенный шар
  • Red Moon / Кровавая луна
  • Jolly Red Elf / Красный Рождественский эльф
  • Bloodsport / Кровавый спорт
  • Bloodhounds / По кровавому следу
  • Red Alert / Красная тревога
  • Blood For Blood / Кровь за кровь
  • Red Gold / Кровавое золото
  • Red Queen / Червонная дама
  • Bloodstream / Кровоток
  • The Red Mile / Красная миля
  • Every Rose Has Its Thorn / У каждой розы есть шипы
  • Redacted / Отредактированный
  • Like A Redheaded Stepchild / Как рыжеволосый пасынок
  • Rhapsody in Red / Рапсодия в красном
  • Strawberries & Cream / Клубника со сливками

MI

General
Complete name : D:\Films\The.Mentalist.s03.rus.eng.web-dlrip\The.Mentalist.s03e01.rus.eng.web-dlrip.avi
Format : AVI
Format/Info : Audio Video Interleave
File size : 502 MiB
Duration : 43mn 1s
Overall bit rate : 1 630 Kbps
Writing application : VirtualDubModRus 1.5.10.2 (build 2542/release)
Writing library : VirtualDubMod build 2542/release
Video
ID : 0
Format : MPEG-4 Visual
Format profile : Advanced Simple@L5
Format settings, BVOP : 1
Format settings, QPel : No
Format settings, GMC : No warppoints
Format settings, Matrix : Default (MPEG)
Codec ID : XVID
Codec ID/Hint : XviD
Duration : 43mn 1s
Bit rate : 1 232 Kbps
Width : 720 pixels
Height : 400 pixels
Display aspect ratio : 16:9
Frame rate : 23.976 fps
Color space : YUV
Chroma subsampling : 4:2:0
Bit depth : 8 bits
Scan type : Progressive
Compression mode : Lossy
Bits/(Pixel*Frame) : 0.178
Stream size : 379 MiB (76%)
Writing library : XviD 1.2.1 (UTC 2008-12-04)
Audio #1
ID : 1
Format : MPEG Audio
Format version : Version 1
Format profile : Layer 3
Codec ID : 55
Codec ID/Hint : MP3
Duration : 43mn 1s
Bit rate mode : Constant
Bit rate : 192 Kbps
Channel(s) : 2 channels
Sampling rate : 48.0 KHz
Compression mode : Lossy
Stream size : 59.1 MiB (12%)
Alignment : Aligned on interleaves
Interleave, duration : 42 ms (1.00 video frame)
Interleave, preload duration : 504 ms
Audio #2
ID : 2
Format : MPEG Audio
Format version : Version 1
Format profile : Layer 3
Codec ID : 55
Codec ID/Hint : MP3
Duration : 43mn 1s
Bit rate mode : Constant
Bit rate : 192 Kbps
Channel(s) : 2 channels
Sampling rate : 48.0 KHz
Compression mode : Lossy
Stream size : 59.1 MiB (12%)
Alignment : Aligned on interleaves
Interleave, duration : 42 ms (1.00 video frame)
Interleave, preload duration : 504 ms
Writing library : LAME3.98r
Encoding settings : -m s -V 4 -q 2 -lowpass 18.6 -b 192

Скриншоты




-Весь сезон поместится на 3 диска DVD5 (по 8 серий на каждый)
[Торрент-статистика]
[Профиль]  [ЛС] 
Показать сообщения:    
Ответить на тему

Текущее время: Сегодня 06:44

Часовой пояс: GMT + 4



Вы не можете начинать темы
Вы не можете отвечать на сообщения
Вы не можете редактировать свои сообщения
Вы не можете удалять свои сообщения
Вы не можете голосовать в опросах
Вы не можете прикреплять файлы к сообщениям
Вы не можете скачивать файлы