Менталист / The Mentalist / Сезон: 2 / Серии: 1-23 (23) (Крис Лонг, Дэвид Баррет, Дэвид Наттер) [2009 г., драма, детектив, триллер, WEB-DLRip] (ТВ3)

Ответить на тему
 
Автор
Сообщение

ArtZak ®

Пол:

Стаж: 7 лет 1 месяц

Сообщений: 2943

Репутация: 1364 [+] [-]

Откуда: Россия

Пост 16-Апр-2013 04:02

[Цитировать] 

Менталист / The Mentalist
Полный 2 сезон
Год выпуска: 2009
Страна: США
Жанр: Драма, детектив, триллер,
Продолжительность серии: ~43 мин.
Перевод: Профессиональный (Полное дублирование) (ТВ3)
Cубтитры: нет
Режиссёр: Крис Лонг, Дэвид Баррет, Дэвид Наттер- -В ролях:
Саймон Бейкер, Робин Танни, Тим Кенг, Овайн Йомэн, Аманда Риджетти, Грегори Итцин, Бодхи Элфмэн, Винн Эверетт, Аластер Маккензи, Крис Таллман и др.
Описание:
Патрик Джейн — детектив и независимый консультант из Калифорнийского Бюро Расследований (КБР), он использует свои отточенные, как лезвие, навыки наблюдения для раскрытия тяжких преступлений. В самом Бюро Джейн известен за частые нарушения протокола, а также за его звездное прошлое: он работал медиумом, однако теперь сам признает, что симулировал паранормальные способности. Роль Джейна в раскрытии целой серии загадочных преступлений высоко ценится коллегами. Но суровый старший агент Тереза Лисбон против того, чтоб Джейн работал с ее отрядом, и то вынужденно признает его успехи, то критикует его за театральность, нарциссизм и отсутствие границ.
Качество: WEB-DLRip
Формат: AVI
Видео: 720x400 (1.80:1), 23.976 fps, XviD MPEG-4 ~1054 kbps avg, 0.15 bit/pixel
Аудио Rus: 48 kHz, AC3 Dolby Digital, 2/0 (L,R) ch, ~192 kbps
Аудио Eng: 48 kHz, AC3 Dolby Digital, 2/0 (L,R) ch, ~192 kbps

Список серий

  • Redemption
  • The Scarlet Letter
  • Red Badge
  • Red Menace
  • Red Scare
  • Black Gold and Red Blood
  • Red Bulls
  • His Red Right Hand
  • A Price Above Rubies
  • Throwing Fire
  • Rose-Colored Glasses
  • Bleeding Heart
  • Redline
  • Blood In, Blood Out
  • Red Herring
  • Code Red
  • The Red Box
  • Aingavite Baa
  • Blood Money
  • Red All Over
  • 18-5-4
  • Red Letter
  • Red Sky in the Morning

MI

General
Complete name : D:\Films\The.Mentalist.s02.rus.eng.web-dlrip.filmgate.tv\The.Mentalist.s02e22.rus.eng.web-dlrip.filmgate.tv.avi
Format : AVI
Format/Info : Audio Video Interleave
File size : 360 MiB
Duration : 42mn 47s
Overall bit rate : 1 177 Kbps
Writing application : VirtualDubModRus 1.5.10.2 (build 2542/release)
Writing library : VirtualDubMod build 2542/release
Video
ID : 0
Format : MPEG-4 Visual
Format profile : Advanced Simple@L5
Format settings, BVOP : 8
Format settings, QPel : No
Format settings, GMC : No warppoints
Format settings, Matrix : Default (H.263)
Muxing mode : Packed bitstream
Codec ID : XVID
Codec ID/Hint : XviD
Duration : 42mn 47s
Bit rate : 779 Kbps
Width : 720 pixels
Height : 400 pixels
Display aspect ratio : 16:9
Frame rate : 23.976 fps
Color space : YUV
Chroma subsampling : 4:2:0
Bit depth : 8 bits
Scan type : Progressive
Compression mode : Lossy
Bits/(Pixel*Frame) : 0.113
Stream size : 238 MiB (66%)
Writing library : XviD 57
Audio #1
ID : 1
Format : AC-3
Format/Info : Audio Coding 3
Mode extension : CM (complete main)
Format settings, Endianness : Big
Codec ID : 2000
Duration : 42mn 47s
Bit rate mode : Constant
Bit rate : 192 Kbps
Channel(s) : 2 channels
Channel positions : Front: L R
Sampling rate : 48.0 KHz
Bit depth : 16 bits
Compression mode : Lossy
Stream size : 58.8 MiB (16%)
Alignment : Split accross interleaves
Interleave, duration : 42 ms (1.00 video frame)
Interleave, preload duration : 500 ms
Audio #2
ID : 2
Format : AC-3
Format/Info : Audio Coding 3
Mode extension : CM (complete main)
Format settings, Endianness : Big
Codec ID : 2000
Duration : 42mn 47s
Bit rate mode : Constant
Bit rate : 192 Kbps
Channel(s) : 2 channels
Channel positions : Front: L R
Sampling rate : 48.0 KHz
Bit depth : 16 bits
Compression mode : Lossy
Stream size : 58.8 MiB (16%)
Alignment : Split accross interleaves
Interleave, duration : 42 ms (1.00 video frame)
Interleave, preload duration : 500 ms

Скриншоты


[Торрент-статистика]
[Профиль]  [ЛС] 
Показать сообщения:    
Ответить на тему

Текущее время: Сегодня 19:49

Часовой пояс: GMT + 4



Вы не можете начинать темы
Вы не можете отвечать на сообщения
Вы не можете редактировать свои сообщения
Вы не можете удалять свои сообщения
Вы не можете голосовать в опросах
Вы не можете прикреплять файлы к сообщениям
Вы не можете скачивать файлы