Последний час / Zero Hour / Сезон: 1 / Серии: 1-13(13) (Стивен ДеПол, Билл Джирхарт, Пьер Морель) [2013, приключения, триллер, драма, детектив, WEB-DL 720p] MVO (BaibaKo)

Ответить на тему
 
Автор
Сообщение

awk05 ®

Пол:

Стаж: 6 лет 5 месяцев

Сообщений: 1347

Репутация: 275 [+] [-]

Откуда: Западная Украина Ривне

Пост 11-Май-2013 02:55

[Цитировать] 

--Последний час / Zero Hour-- Год выпуска: 2013
Страна: США | ABC
Жанр: приключения, триллер, драма, детектив
Продолжительность: ~ 44 минуты
Перевод: Профессиональный (многоголосый, закадровый) - BaibaKo
Субтитры: Нет
Режиссёры: Стивен ДеПол, Билл Джирхарт, Пьер Морель-В ролях: Энтони Эдвардс, Кармен Эджого, Скотт Майкл Фостер, Эддисон Тимлин, Джасинда Бэррет, Микаэл Нюквист, Генри Келемен, Кен Люн, Клаудия МакЛэйн, Амир Арисон и др.-Описание: Энтузиаст-издатель журнала о паранормальном «Современный скептик» Хэнк Галлистон потратил свою карьеру, следуя за подсказками, разоблачая мифы и раскрывая заговоры. Признанный помешанным на сверхъестественном, он руководствуется девизом «Логика — это компас». Но когда его красивая жена Лейла похищена из своего магазина антикварных часов, Хэнк втягивается в одну из самых интригующих тайн в истории человечества, охватывающую весь мир и прошлые столетия.
Карта сокровищ спрятана внутри одних из часов его жены, и то, к чему она приведет, может вызвать катастрофические последствия. Теперь Хэнк должен расшифровать символы и раскрыть тайны карты, но так, чтобы ответы не попали в плохие руки — руки человека, которого они называют Белым Винсентом. С двумя юными союзниками Рэйчел и Эрроном, а также привлекательным агентом ФБР Беккой Райли, Хэнк поведет их на захватывающую гонку на время, чтобы найти жену и спасти человечество.-Качество: WEB-DL 720p
Формат: MKV
Видео кодек: H.264
Аудио кодек: AC3
Видео: 1280x720 (16:9), 23.976 fps, 4 718 Kbps, ~0.180 bit/pixel
Аудио Rus: 48 kHz, 6 ch, ~384 kbps |BaibaKo|
Аудио Eng: 48 kHz, 6 ch, ~384 kbps |Original|-
Перевод: Светлана Самойленко
Озвучка: Юлия Котурбаш, Елена Григорьева, Олекса Мельник и Александр Фурман
Обложка: Татьяна Saavick-Сэмпл / ImDB / Кинопоиск-
ВНИМАНИЕ! С 4 серии сериал выходит на испанской версии канала FOX. Качество HDTV. Показ в США обещают возобновить в июне. Тогда, вероятно, и появится WEB-DL.-Тех.данные начиная с четвертой серии-Качество: HDTV 720p
Формат: MKV
Видео: 1280x720 (16:9), 25.000 fps, 2 708 Kbps, ~0.180 bit/pixel
Аудио rus: ACС, 2 ch, 48,0 КГц 192 Кбит/сек
Аудио eng: ACС, 2 ch, 48,0 КГц 192 Кбит/сек

Список серий

01. Пораженный / Strike
02. Циферблат / Face
03. Маятник
04. Цепь
05. Нить подвеса
06. Гирька
07. Сверим часы
08. Спираль
09. Балансир
10. Спусковой механизм
11. Стрелки
12. Собачка
13. Пружина

Скриншоты


MediaInfo

Расположение: E:\Сериалы новые\Zero.Hour.s01.720p.WEB-DL.Rus.Eng.BaibaKo\Zero.Hour.s01e02.HD720p.WEB-DL.Rus.Eng.BaibaKo.tv.mkv
Имя файла: Zero.Hour.s01e02.HD720p.WEB-DL.Rus.Eng.BaibaKo.tv.mkv
Формат файла: .mkv (Matroska)
Размер файла: 0 Byte(s)
Длительность: 42mn 31s
Навигация по главам: Нет
Bitrate (все потоки): 4 718 Kbps
Файл создан...: UTC 2010-02-22 21:41:31
...при помощи: mkvmerge v5.9.0 ('On The Loose') built on Dec 9 2012 15:37:01
...с использованием: libebml v1.3.0 + libmatroska v1.4.0
Название: BaibaKo.tv presents - Последний час 1x02 Циферблат
Тип потока: Видео
Длительность: 00:42:31
Кодек: AVC
Кодек/Профиль: High@L3.1
Кодек/ID: V_MPEG4/ISO/AVC
Размеры изображения: 1280 x 720 (16:9)
Частота кадров: 23.976 fps
Размер потока: 1.15 GiB (82%)
Битрейт: 3 857 Kbps
Цветовое пространство: YUV
Тип развёртки: Progressive
Bits/(Pixel*Frame): 0.175
Глубина пикселя: 8 bits
Тип потока: Звук #1
Длительность: 00:42:31.328
Кодек: AC-3
Кодек/ID: A_AC3
Частота дискретизации: 48.0 KHz
Каналы: 6 channels
Каналы/позиция: Front: L C R, Side: L R, LFE
Битрейт: 384 Kbps
Тип битрейта: Constant
Размер потока: 117 MiB (8%)
Язык: Russian
Название: Rus BaibaKo.tv DD5.1
Тип потока: Звук #2
Длительность: 00:42:31.328
Кодек: AC-3
Кодек/ID: A_AC3
Частота дискретизации: 48.0 KHz
Каналы: 6 channels
Каналы/позиция: Front: L C R, Side: L R, LFE
Битрейт: 384 Kbps
Тип битрейта: Constant
Размер потока: 117 MiB (8%)
Язык: English
Название: Eng DD5.1

MI с 4 серии

Расположение: E:\Сериалы новые\Zero.Hour.s01.720p.WEB-DL.Rus.Eng.BaibaKo\Zero.Hour.s01e04.HDTV720p.Rus.Eng.BaibaKo.tv.mkv
Имя файла: Zero.Hour.s01e04.HDTV720p.Rus.Eng.BaibaKo.tv.mkv
Формат файла: .mkv (Matroska)
Размер файла: 787.62 MB
Длительность: 40mn 39s
Навигация по главам: Нет
Bitrate (все потоки): 2 708 Kbps
Файл создан...: UTC 2010-02-22 21:41:31
...при помощи: mkvmerge v5.9.0 ('On The Loose') built on Dec 9 2012 15:37:01
...с использованием: libebml v1.3.0 + libmatroska v1.4.0
Название: BaibaKo.tv presents - Последний час 1x04 Цепь
Тип потока: Видео
Длительность: 00:40:39
Кодек: AVC
Кодек/Профиль: High@L4.1
Кодек/ID: V_MPEG4/ISO/AVC
Размеры изображения: 1280 x 720 (16:9)
Частота кадров: 25.000 fps
Цветовое пространство: YUV
Тип развёртки: Progressive
Глубина пикселя: 8 bits
Библиотека кодирования: x264 core 130 r2273 b3065e6
Настройки кодирования: cabac=1 / ref=5 / deblock=1:0:0 / analyse=0x3:0x113 / me=umh / subme=8 / psy=1 / psy_rd=1.00:0.00 / mixed_ref=1 / me_range=16 / chroma_me=1 / trellis=1 / 8x8dct=1 / cqm=0 / deadzone=21,11 / fast_pskip=1 / chroma_qp_offset=-2 / threads=12 / lookahead_threads=2 / sliced_threads=0 / nr=0 / decimate=1 / interlaced=0 / bluray_compat=0 / constrained_intra=0 / bframes=3 / b_pyramid=2 / b_adapt=2 / b_bias=0 / direct=3 / weightb=1 / open_gop=0 / weightp=2 / keyint=250 / keyint_min=25 / scenecut=40 / intra_refresh=0 / rc_lookahead=50 / rc=crf / mbtree=1 / crf=18.0 / qcomp=0.60 / qpmin=0 / qpmax=69 / qpstep=4 / ip_ratio=1.40 / aq=1:1.00
Тип потока: Звук #1
Длительность: 00:40:39.966
Кодек: AAC
Кодек/ID: A_AAC
Частота дискретизации: 48.0 KHz
Каналы: 2 channels
Каналы/позиция: Front: L R
Язык: Russian
Название: Rus BaibaKo.tv
Тип потока: Звук #2
Длительность: 00:40:39.966
Кодек: AAC
Кодек/ID: A_AAC
Частота дискретизации: 48.0 KHz
Каналы: 2 channels
Каналы/позиция: Front: L R
Язык: English
Название: Eng

Скриншоты с 4 серии

Внимание! Раздача ведётся путём добавления новых серий.

Внимание! Раздача ведётся путём добавления новых серий; при каждом добавлении создётся новый торрент. Чтобы начать докачку новой серии, пользователям необходимо сделать следующее:
Остановить скачивание.
Удалить старый торрент у себя из клиента (старые серии удалять не надо).
Скачать новый торрент и запустить его у себя в клиенте вместо старого, при этом указать клиенту путь в старую папку куда и должно происходить скачивание новых серий.
Ваш клиент при этом должен произвести хеширование (проверку) старой папки (если не производит сам - помогите ему сделать это), и будет докачивать только те серии которых у вас ещё нет. Старые серии при этом не удаляются, а продолжают раздаваться!
Eсли вы уже удалили старые серии, то предотвратить повторную закачку старых серий можно, отжав галочку в соответсвующих местах при запуске нового торрента. По возможности, желательно не удалять старые серии как можно дольше чтобы релизёр не столько продолжал раздавать старые серии, а смог сконцентрироваться на новых.

_________________
[Торрент-статистика]
[Профиль]  [ЛС] 
Показать сообщения:    
Ответить на тему

Текущее время: Сегодня 09:53

Часовой пояс: GMT + 4



Вы не можете начинать темы
Вы не можете отвечать на сообщения
Вы не можете редактировать свои сообщения
Вы не можете удалять свои сообщения
Вы не можете голосовать в опросах
Вы не можете прикреплять файлы к сообщениям
Вы не можете скачивать файлы