Адреналин: Дилогия / Crank: Dilogy (Марк Невелдин, Брайан Тэйлор) [2006-2009 г., боевик, триллер, криминал, комедия, фэнтези, HDRip]

Ответить на тему
 
Автор
Сообщение

alien.09 ®

Пол:

Стаж: 4 года 9 месяцев

Сообщений: 753

Репутация: 565 [+] [-]

Пост 22-Апр-2013 01:42

[Цитировать] 

-Годы выпуска: 2006-2009
Страна: США
Жанр: боевик, триллер, криминал, комедия, фэнтези

Адреналин

Адреналин / Crank
Год выпуска: 2006
Страна: США
Жанр: боевик, триллер, криминал
Продолжительность: 01:27:42
Режиссер: Марк Невелдин, Брайан Тэйлор
В ролях: Джейсон Стэтхэм, Эми Смарт, Хосе Пабло Кантилльо, Эфрен Рамирез, Дуайт Йокем, Карлос Санс, Рено Уилсон, Еди Касеги, Гленн Хоуертон, Джей Ксала
Описание: Наемный убийца Чев узнает, что недоброжелатели отравили его редким китайским ядом и отрава начнет действовать немедленно, как только пульс перестанет биться ниже определенной отметки.
И теперь Чеву нужно успеть сделать все свои дела, попробовать раздобыть противоядие и отомстить своим отравителям в прямом смысле слова впопыхах — стараясь создавать вокруг себя как можно более напряженную обстановку и не расслабляться ни на секунду...


Тип релиза:HDRip
Контейнер: MP4
Видео кодек: H264 (AVC)
Аудио кодек: AAC
Видео: AVC at 1258 Кбит/сек, AVC at 589 Кбит/сек, 640 x 352 (1.778) at 23.976 fps
Аудио: AAC at 128 Кбит/сек, 2 канала, 48,0 КГц

MI Report

Общее
Полное имя : C:\Users\Gary\Videos\Бродимком\Адреналин дилогия 640х\Адреналин 2006 640х.mp4
Формат : MPEG-4
Профиль формата : Base Media
Идентификатор кодека : isom
Размер файла : 445 Мбайт
Продолжительность : 1 ч. 27 м.
Общий поток : 709 Кбит/сек
Исполнитель : [Brodimсom]
Дата кодирования : UTC 2013-04-18 20:42:11
Дата пометки : UTC 2013-04-18 20:42:11
Программа кодирования : XviD4PSP 6.0 / 54.29.105
Видео
Идентификатор : 1
Формат : AVC
Формат/Информация : Advanced Video Codec
Профиль формата : Main@L4.1
Параметр CABAC формата : Да
Параметр ReFrames формата : 3 кадра
Идентификатор кодека : avc1
Идентификатор кодека/Информация : Advanced Video Coding
Продолжительность : 1 ч. 27 м.
Битрейт : 589 Кбит/сек
Ширина : 640 пикселей
Высота : 352 пикселя
Соотношение сторон : 16:9
Режим частоты кадров : Постоянный
Частота кадров : 23,976 кадра/сек
Цветовое пространство : YUV
Субдискретизация насыщенности : 4:2:0
Битовая глубина : 8 бит
Тип развёртки : Прогрессивная
Бит/(Пиксели*Кадры) : 0.109
Размер потока : 361 Мбайт (81%)
Библиотека кодирования : x264 core 128 r2216M 198a7ea
Настройки программы : cabac=1 / ref=3 / deblock=1:0:0 / analyse=0x1:0x131 / me=hex / subme=7 / psy=1 / psy_rd=1.00:0.20 / mixed_ref=1 / me_range=16 / chroma_me=1 / trellis=1 / 8x8dct=0 / cqm=0 / deadzone=21,11 / fast_pskip=1 / chroma_qp_offset=-3 / threads=8 / lookahead_threads=1 / sliced_threads=0 / nr=0 / decimate=1 / interlaced=0 / bluray_compat=0 / constrained_intra=0 / bframes=3 / b_pyramid=0 / b_adapt=2 / b_bias=0 / direct=3 / weightb=1 / open_gop=0 / weightp=0 / keyint=230 / keyint_min=23 / scenecut=40 / intra_refresh=0 / rc_lookahead=40 / rc=cbr / mbtree=1 / bitrate=589 / ratetol=1.0 / qcomp=0.60 / qpmin=10 / qpmax=51 / qpstep=4 / vbv_maxrate=589 / vbv_bufsize=1835 / nal_hrd=none / ip_ratio=1.40 / aq=1:1.00
Язык : English
Дата кодирования : UTC 2013-04-18 20:42:11
Дата пометки : UTC 2013-04-18 20:42:11
Аудио
Идентификатор : 2
Формат : AAC
Формат/Информация : Advanced Audio Codec
Профиль формата : LC
Идентификатор кодека : 40
Продолжительность : 1 ч. 27 м.
Вид битрейта : Постоянный
Битрейт : 128 Кбит/сек
Каналы : 2 канала
Расположение каналов : Front: L R
Частота : 48,0 КГц
Метод сжатия : С потерями
Задержка видео : 42 мс.
Размер потока : 80,2 Мбайт (18%)
Язык : Russian
Дата кодирования : UTC 2013-04-18 20:42:11
Дата пометки : UTC 2013-04-18 20:42:11

Скриншоты

Адреналин 2

Адреналин 2: Высокое напряжение/ Crank: High Voltage
Год выпуска: 2006
Страна: США
Жанр: боевик, триллер, криминал
Продолжительность: 01:27:42
Режиссер: Марк Невелдин, Брайан Тэйлор
В ролях: Джейсон Стэтхэм, Эми Смарт, Клифтон Коллинз мл., Бай Лин, Дэвид Кэррадайн, Кори Хэйм, Эфрен Рамирез, Дуайт Йоакам, Гленн Хоуертон, Холли Вебер
Описание: Он умер, но обещал вернуться! Не чудом, а благодаря современным медицинским технологиям Чев Челиос получает новое сердце и новый шанс отомстить своим врагам. Теперь для постоянной подзарядки ему требуется электрический разряд мощностью не меньше, чем у автомобильного аккумулятора...


Тип релиза: HDRip
Контейнер: MP4
Видео кодек: H264 (AVC)
Аудио кодек: AAC
Видео: AVC at 589 Кбит/сек, 640 x 352 (1.849) at 23.976 fps
Аудио: AAC at 128 Кбит/сек, 2 канала, 48,0 КГц
Субтитры: английские вшитые в паре эпизодов
Внимание!: присутствует ненормативная лексика

MI Report

Общее
Полное имя : C:\Users\Gary\Videos\Бродимком\Адреналин дилогия 640х\Адреналин 2009 640х.mp4
Формат : MPEG-4
Профиль формата : Base Media
Идентификатор кодека : isom
Размер файла : 486 Мбайт
Продолжительность : 1 ч. 35 м.
Общий поток : 708 Кбит/сек
Исполнитель : [Brodimсom]
Дата кодирования : UTC 2013-04-18 20:48:50
Дата пометки : UTC 2013-04-18 20:48:50
Программа кодирования : XviD4PSP 6.0 / 54.29.105
Видео
Идентификатор : 1
Формат : AVC
Формат/Информация : Advanced Video Codec
Профиль формата : Main@L4.1
Параметр CABAC формата : Да
Параметр ReFrames формата : 3 кадра
Идентификатор кодека : avc1
Идентификатор кодека/Информация : Advanced Video Coding
Продолжительность : 1 ч. 35 м.
Битрейт : 589 Кбит/сек
Ширина : 640 пикселей
Высота : 352 пикселя
Соотношение сторон : 1,85:1
Соотношение сторон в оригинале : 1,85:1
Режим частоты кадров : Постоянный
Частота кадров : 23,976 кадра/сек
Цветовое пространство : YUV
Субдискретизация насыщенности : 4:2:0
Битовая глубина : 8 бит
Тип развёртки : Прогрессивная
Бит/(Пиксели*Кадры) : 0.109
Размер потока : 395 Мбайт (81%)
Библиотека кодирования : x264 core 128 r2216M 198a7ea
Настройки программы : cabac=1 / ref=3 / deblock=1:0:0 / analyse=0x1:0x131 / me=hex / subme=7 / psy=1 / psy_rd=1.00:0.20 / mixed_ref=1 / me_range=16 / chroma_me=1 / trellis=1 / 8x8dct=0 / cqm=0 / deadzone=21,11 / fast_pskip=1 / chroma_qp_offset=-3 / threads=8 / lookahead_threads=1 / sliced_threads=0 / nr=0 / decimate=1 / interlaced=0 / bluray_compat=0 / constrained_intra=0 / bframes=3 / b_pyramid=0 / b_adapt=2 / b_bias=0 / direct=3 / weightb=1 / open_gop=0 / weightp=0 / keyint=230 / keyint_min=23 / scenecut=40 / intra_refresh=0 / rc_lookahead=40 / rc=cbr / mbtree=1 / bitrate=589 / ratetol=1.0 / qcomp=0.60 / qpmin=10 / qpmax=51 / qpstep=4 / vbv_maxrate=589 / vbv_bufsize=1835 / nal_hrd=none / ip_ratio=1.40 / aq=1:1.00
Язык : English
Дата кодирования : UTC 2013-04-18 20:48:50
Дата пометки : UTC 2013-04-18 20:48:50
Аудио
Идентификатор : 2
Формат : AAC
Формат/Информация : Advanced Audio Codec
Профиль формата : LC
Идентификатор кодека : 40
Продолжительность : 1 ч. 35 м.
Вид битрейта : Постоянный
Битрейт : 128 Кбит/сек
Каналы : 2 канала
Расположение каналов : Front: L R
Частота : 48,0 КГц
Метод сжатия : С потерями
Задержка видео : 42 мс.
Размер потока : 87,4 Мбайт (18%)
Язык : Russian
Дата кодирования : UTC 2013-04-18 20:48:50
Дата пометки : UTC 2013-04-18 20:48:50

Скриншоты


_________________
Правообладатели, убейтесь об эту надпись.
[Торрент-статистика]
[Профиль]  [ЛС] 
Показать сообщения:    
Ответить на тему

Текущее время: Сегодня 05:05

Часовой пояс: GMT + 4



Вы не можете начинать темы
Вы не можете отвечать на сообщения
Вы не можете редактировать свои сообщения
Вы не можете удалять свои сообщения
Вы не можете голосовать в опросах
Вы не можете прикреплять файлы к сообщениям
Вы не можете скачивать файлы