Последнее путешествие Синдбада / Сезон: 1 / Серии: 1-12 из 12 (Егор Абросимов) [2007 г., Боевик, Приключения, Криминал, DVDRip]

Ответить на тему
 
Автор
Сообщение

awk05 ®

Пол:

Стаж: 8 лет 2 месяца

Сообщений: 1334

Репутация: 275 [+] [-]

Откуда: Западная Украина Ривне

Пост 21-Мар-2013 20:31

[Цитировать] 

--Последнее путешествие Синдбада--
Страна: Россия
Год выпуска: 2007
Жанр: Боевик, Приключения, Криминал
Сезон/Серия: Сезон:1 /Серия 1-12 из 12
Продолжительность: 12 х ~ 00:49:00
Субтитры: отсутствуют--Режиссер: Егор Абросимов--В ролях: Андрей Смелов, Эдуард Трухменев, Татьяна Аптикеева, Габриеле Барткуте, Михаил Руденко, Алексей Осипов, Дмитрий Мухамадиев, Игорь Челноков, Вадим Волков, Игорь Иванов--Описание: В одной из арабских стран при странных обстоятельствах исчезает русская женщина, Елена Озерская, которая работала по контракту в местном госпитале. Родные уже отчаялись разыскать пропавшую, и только ее давний друг и институтский товарищ Баринов еще не потерял надежды. Он нанимает квалифицированного специалиста, имеющего большой опыт решения сложных задач. Этого человека зовут Синдбад. Когда-то он бы вынужден, в силу ряда трагических обстоятельств, покинуть свою родину... Маленький Синдбад пережил страшную трагедию: его родители были зверски убиты на пороге собственного дома. Вынужденный скрываться под разными личинами всю свою жизнь, Синдбад оказывается в Афганистане, где сражается на стороне советских войск. Позже он попадает в Россию, где ему приходится перебиваться случайными заработками, пока заинтересованные лица не разглядели его главный талант: скиталец с арабского Востока обладает удивительным умением находить решение, казалось бы, совершенно безнадежных задач, он может помочь людям, которые попали в беду. Именно для того, чтобы выручить из неприятностей давно пропавшую на чужбине девушку, Синдбад отправляется в свое последнее путешествие - на родину, в Тунис...--Качество видео: DVDRip
Формат видео: AVI
Видео кодек: MPEG4, XviD
Аудио кодек: MP3
Видео: MPEG4, XviD, 720x400 (16:9), 25.000 fps, 1 003 Kbps (0.139 bit/pixel)
Аудио: MP3, 48.0 KHz, 2 ch, 128 Kbps, CBR, 16 bits [Русский] -- --

Тех. данные (MI)

Расположение: E:\СЕРИАЛЫ\Синбад\Poslednee.Putehestvie.Sinbada.(12.iz.12).2007.XviD.DVDRip.Kinozal.TV-WOLF\Poslednee.Putehestvie.Sinbada.01.iz.12.2007.XviD.DVDRip.Kinozal.TV-WOLF.avi
Имя файла: Poslednee.Putehestvie.Sinbada.01.iz.12.2007.XviD.DVDRip.Kinozal.TV-WOLF.avi
Формат файла: .avi (AVI)
Размер файла: 350.01 MB
Длительность: 44mn 34s
Навигация по главам: Нет
Bitrate (все потоки): 1 098 Kbps
...при помощи: VirtualDubMod 1.5.4.1 (build 2178/release)
...с использованием: VirtualDubMod build 2178/release
Название: Poslednee.Putehestvie.Sinbada.01.iz.12.2007.XviD.DVDRip.Kinozal.TV-WOLF
Тип потока: Видео
Длительность: 00:44:34
Кодек: MPEG-4 Visual
Кодек/Профиль: Advanced Simple@L5
Кодек/ID: XVID
Размеры изображения: 720 x 416 (16:9)
Частота кадров: 25.000 fps
Размер потока: 307 MiB (88%)
Битрейт: 963 Kbps
Цветовое пространство: YUV
Тип развёртки: Progressive
Bits/(Pixel*Frame): 0.129
Глубина пикселя: 8 bits
Библиотека кодирования: XviD 1.1.2 (UTC 2006-11-01)
Тип потока: Звук #1
Длительность: 00:44:34.320
Кодек: MPEG Audio
Кодек/ID: 55
Частота дискретизации: 48.0 KHz
Каналы: 2 channels
Битрейт: 128 Kbps
Тип битрейта: Constant
Размер потока: 40.8 MiB (12%)

Кадры из фильма



«СЕЗОН 1» «СЕЗОН 2» СЕЗОН 3» «СЕЗОН 4»

_________________


Последний раз редактировалось: awk05 (2014-09-02 14:51), всего редактировалось 5 раз(а)
[Торрент-статистика]
[Профиль]  [ЛС] 

NeliyZar

Пол:

Стаж: 8 лет 9 месяцев

Сообщений: 3285

Репутация: 689 [+] [-]

Откуда: Донбасс

Пост 22-Мар-2013 02:47 (спустя 6 часов)

[Цитировать] 

awk05, я вас аж не узнала с новой авкой)) ПО колонке новых постов сразу даже не поняла кто это у нас так активно релизит ad

_________________
Спорить с женщиной не так тяжело, когда понимаешь, что это бесполезно... (Михаил Мамчич)
Исправили раздачу? Отпишитесь модератору в ЛС с ссылкой на релиз.
[Торрент-статистика]
[Профиль]  [ЛС] 
Показать сообщения:    
Ответить на тему

Текущее время: Сегодня 12:13

Часовой пояс: GMT + 4



Вы не можете начинать темы
Вы не можете отвечать на сообщения
Вы не можете редактировать свои сообщения
Вы не можете удалять свои сообщения
Вы не можете голосовать в опросах
Вы не можете прикреплять файлы к сообщениям
Вы не можете скачивать файлы