Белый Воротничок / White Collar / Сезон: 2 / Серии: 1-16 (16) (Джон Т. Кречмер, Рассел Ли Файн, Пол Холахан) [2010 г.,детектив, криминал, драма, комедия, WEB-DLRip] (NewStudio)

Ответить на тему
 
Автор
Сообщение

awk05 ®

Пол:

Стаж: 8 лет 2 месяца

Сообщений: 1334

Репутация: 275 [+] [-]

Откуда: Западная Украина Ривне

Пост 09-Янв-2013 22:35

[Цитировать] 

---Белый воротничок / White Collar-- Год выпуска: 2010
Страна: США
Жанр: детектив, криминал, драма, комедия
Сезон/Серия: Сезон:2 /Серия 1-16 из 16
Продолжительность: 16 х ~00:49:00 серия
Перевод: Профессиональный (многоголосый закадровый) + Original
Озвучка / Автор перевода: NewStudio
Субтитры: отсутствуют--Режиссёр: Джон Т. Кречмер, Рассел Ли Файн, Пол Холахан--В ролях: Мэттью Бомер (Neal Caffrey), Тим ДиКэй (Peter Burke), Уилли Гарсон (Mozzie), Тиффани Тиссен (Elizabeth Burke), Шариф Аткинс (Clinton Jones), Марша Томасон (Diana Barrigan), Хилари Бертон (Sara Ellis), Дайэнн Кэррол (June), Джеймс Ребхорн (Reese Hughes), Натали Моралес (Lauren Cruz), Глория Вотсис (Alex Hunter), и др.--Описание: На полицейском сленге "белый воротничок" - это преступник, тщательно избегающий насилия и проворачивающий крупные аферы, полагаясь на ловкость рук, силу своего разума и знание человеческой природы. Речь идет о мастерах, подделывающих знаменитые произведения искусства, финансовых мошенниках и прочих "злых гениях".
Питер Берк, агент ФБР, занимающийся поимкой "воротничков", перетягивает на сторону закона Нила Кэффри, своего вечного оппонента, отбывающего тюремный срок. Девушка Нила, Кейт, попадает в переделку и нуждается в помощи. Кэффри устраивает побег из тюрьмы, но хитроумный Берк его тотчас ловит. Чтобы получить свободу, Кэффри вынужден пойти на сделку. Он носит на ноге датчик слежения и консультирует ФБР в особо щекотливых вопросах по разоблачению и поимке жуликов-интеллектуалов. Взамен его выпускают на поруки. Из фанатичного агента ФБР и экс-афериста, направившего талант в "мирное русло" получился отличный тандем.--Качество видео: WEB-DLRip
Формат видео: AVI
Видео кодек: MPEG4, XviD
Аудио кодек: MP3
Видео: MPEG4, XviD, 624x352 (16:9), 23.976 fps, 1 293 Kbps (0.245 bit/pixel)
Аудио 1: MP3, 48.0 KHz, 2 ch, 128 Kbps, CBR, 16 bits [Русский]
Аудио 2: MP3, 48.0 KHz, 2 ch, 128 Kbps, VBR, 16 bits [Английский] -- --

Тех. данные (MI)

Код:
Расположение: E:\СЕРИАЛЫ\White Collar 1-3\White.Collar.S02_NewStudio.TV\white.collar.s02e01.web-dl_NewStudio.TV.avi
Имя файла: white.collar.s02e01.web-dl_NewStudio.TV.avi
Формат файла: .avi (AVI)
Размер файла: 549,44 MB
Длительность: 49mn 3s
Навигация по главам: Нет
Bitrate (все потоки): 1 566 Kbps
Тип битрейта (все потоки): Variable
...при помощи: VirtualDubMod 1.5.10.2 (build 2540/release)
...с использованием: VirtualDubMod build 2540/release
Название: white.collar.s02e01.web-dl_NewStudio.TV
Тип потока: Видео
Длительность: 00:49:03
Кодек: MPEG-4 Visual
Кодек/Профиль: Advanced Simple@L5
Кодек/ID: XVID
Размеры изображения: 624 x 352 (16:9)
Частота кадров: 23.976 fps
Размер потока: 454 MiB (83%)
Битрейт: 1 293 Kbps
Цветовое пространство: YUV
Тип развёртки: Progressive
Bits/(Pixel*Frame): 0.245
Глубина пикселя: 8 bits
Библиотека кодирования: XviD 1.2.1 (UTC 2008-12-04)
Тип потока: Звук #1
Длительность: 00:49:03.480
Кодек: MPEG Audio
Кодек/ID: 55
Частота дискретизации: 48.0 KHz
Каналы: 2 channels
Битрейт: 128 Kbps
Тип битрейта: Constant
Размер потока: 44.9 MiB (8%)
Тип потока: Звук #2
Длительность: 00:49:03.480
Кодек: MPEG Audio
Кодек/ID: 55
Частота дискретизации: 48.0 KHz
Каналы: 2 channels
Битрейт: 128 Kbps
Тип битрейта: Variable
Размер потока: 44.9 MiB (8%)

Кадры из фильма



«СЕЗОН 1» «СЕЗОН 2» СЕЗОН 3» «СЕЗОН 4» «СЕЗОН 5»

_________________
[Торрент-статистика]
[Профиль]  [ЛС] 
Показать сообщения:    
Ответить на тему

Текущее время: Сегодня 11:46

Часовой пояс: GMT + 4



Вы не можете начинать темы
Вы не можете отвечать на сообщения
Вы не можете редактировать свои сообщения
Вы не можете удалять свои сообщения
Вы не можете голосовать в опросах
Вы не можете прикреплять файлы к сообщениям
Вы не можете скачивать файлы