Ментовские войны: Эпилог / Серии: 1-2 из 2 (Егор Абросимов) [2008, Детектив, криминальный фильм, DVB]

Ответить на тему
 
Автор
Сообщение

awk05 ®

Пол:

Стаж: 6 лет 4 месяца

Сообщений: 1348

Репутация: 275 [+] [-]

Откуда: Западная Украина Ривне

Пост 25-Дек-2012 00:49

[Цитировать] 

Ментовские войны : Эпилог 1-2 серии
Год выпуска: 2008
Страна: Россия Студия "Панорама"
Жанр: Детектив, криминальный фильм
Продолжительность: серия ~ 00:45:00
Режиссер: Егор Абросимов
В ролях: Александр Устюгов, Дмитрий Быковский-Ромашов, Александр Лисицын, Олег Жданов, Геннадий Косарев, Анатолий Узденский, Михаил Слесарев, Елена Игнатьева, Евгения Игумнова, Марина Игнатова, Александр Большаков, Алексей Завьялов, Дарья Лесникова (Юргенс), Наталья Бурмистрова (II), Александр Кошкарев, Леонид Осокин, Вадим Бочанов, Сергей Кушаков, Илья Савельев, Андрей Родимов, Юрий Сташин, Роман Якушов
Описание: В ходе жаркой предвыборной гонки, на пост спикера петербургской городской думы претендуют сразу два очень влиятельных в городе бизнесмена - бывший председатель Союза ветеранов Афганистана Юрий Шубин и бывший руководитель нефтяной компании Пётр Набоков. Оба соперника крайне серьезно настроены на борьбу, и никакой результат кроме победы ни одного из них не утраивает. В самый драматический момент компании одного из кандидатов - Шубина - начинает преследовать таинственный шантажист. Этот человек знает о бизнесе бывшего "афганца" такое подробности, которые могут быть известны только очень близким людям. Тем временем, Апостол тоже не дремлет. Ему удается переманить на свою сторону одного из сотрудников Шубина, который за определенное вознаграждение готов поделиться с сотрудниками "убойного" отдела информацией о былых подвигах своего шефа. Скрябин и Джексон решают взяться за это дело, тем более, что они уже не один год искали доказательства преступной деятельности Шубина. Однако дело оборачивается совершенно неожиданным образом. В результате, Джексон оказывается в тюрьме, а Скрябин бесследно исчезает. Шилову вновь приходится возвращаться в родной город...
Качество: DVB
Контейнер: MPEG
Видео кодек: MPEG2
Аудио кодек: MP3 (MPEG1 Layer 3)
Видео: MPEG2 Video 720x576 (16:9) 25.00fps 4526 Кбит/сек, 0.436 bit/pixel
Аудио: MPEG Audio 48000Hz stereo 192 Кбит/сек

MI

General
Complete name : L:\3-Ментовские войны\Ментовские_Войны_Эпилог\Ментовские_Войны_Эпилог_1_серия_DVB_By_dfkthbq1968.mpg
Format : MPEG-PS
File size : 1.77 GiB
Duration : 51mn 38s
Overall bit rate : 4 913 Kbps
Writing library : (c) 1998-2009 Womble Multimedia, Inc. / MPEG Video Wizard (03/2009) / Nov 28 2009
Video
ID : 224 (0xE0)
Format : MPEG Video
Format version : Version 2
Format profile : Main@Main
Format settings, BVOP : Yes
Format settings, Matrix : Default
Duration : 51mn 38s
Bit rate mode : Variable
Bit rate : 4 526 Kbps
Nominal bit rate : 15.0 Mbps
Width : 720 pixels
Height : 576 pixels
Display aspect ratio : 4:3
Frame rate : 25.000 fps
Standard : PAL
Resolution : 8 bits
Colorimetry : 4:2:0
Scan type : Interlaced
Scan order : Top Field First
Bits/(Pixel*Frame) : 0.436
Stream size : 1.63 GiB (92%)
Writing library : (c) 1998-2009 Womble Multimedia, Inc. / MPEG Video Wizard (03/2009) / Nov 28 2009
Audio
ID : 192 (0xC0)
Format : MPEG Audio
Format version : Version 1
Format profile : Layer 2
Duration : 51mn 38s
Bit rate mode : Constant
Bit rate : 192 Kbps
Channel(s) : 2 channels
Sampling rate : 48.0 KHz
Video delay : -40ms
Stream size : 70.9 MiB (4%)
«СЕЗОН 1-6» «СЕЗОН 7» «Эпилог» «Просто Джексон» «Отдельное поручение» «Моя фамилия Шилов»

_________________


Последний раз редактировалось: awk05 (2013-10-27 14:26), всего редактировалось 1 раз
[Торрент-статистика]
[Профиль]  [ЛС] 
Показать сообщения:    
Ответить на тему

Текущее время: Сегодня 05:13

Часовой пояс: GMT + 4



Вы не можете начинать темы
Вы не можете отвечать на сообщения
Вы не можете редактировать свои сообщения
Вы не можете удалять свои сообщения
Вы не можете голосовать в опросах
Вы не можете прикреплять файлы к сообщениям
Вы не можете скачивать файлы