Большая разница. Новый сезон. Выпуск №66 (14.07.2012) SATRip

Ответить на тему
 
Автор
Сообщение

diim ®

Пол:

Стаж: 5 лет 8 месяцев

Сообщений: 1038

Репутация: 112 [+] [-]

Пост 15-Июл-2012 00:22

[Цитировать] 

Большая разница. Новый сезон. Выпуск №66 (14.07.2012) SATRip - Режиссер / Телекомпания: Первый канал
Русское название: Большая разница
Год выпуска: 2012
Жанр: Телепередача
Продолжительность: ~ 00:54:09
Описание:
Александр Цекало, Иван Ургант и актеры постоянной труппы шоу пародий «Большая разница представляют новый выпуск программы, в которой острые, хотя и дружеские шаржи создаются на всем известные фильмы, телепередачи, рекламные ролики, а также на самых популярных актеров, телеведущих, певцов.
Актеры постоянной труппы: Нонна Гришаева, Александр Олешко, Сергей Бурунов, Виктор Андриенко, Игорь Кистол, Маруся Зыкова, Владимир Кисаров, Светлана Галка, Галина Коньшина, Алексей Федотов, Вячеслав Манучаров, Валентина Рубцова, Дмитрий Малашенко и др..
Гости программы: Юлий Гусман, Леонид Ярмольник, Игорь Верник, Гарик Мартиросян, Павел Воля, Гарик Харламов, Тимур Батруддинов, Тимур Родригес, Андрей Леонов, Алексей Маклаков, Андрей Малахов, Александр Гордон и др.
Ведущие: Иван Ургант и Александр Цекало
Смотрите в новом выпуске:
пародию на певицу Славу;
пародию на фильм "Вий";
пародию на фильм "Три мушкетера"
Пародию на группу "Виа Гра"
Пародию на фильм "Пила" в интерьерах передачи "Дом 2"
и другие пародии
Видеокодек: XviD
Битрейт видео: ~1570 kb/s
Размер кадра: 704 x 448
Качество видео: SATRip
Аудиокодек: MP3
Битрейт аудио: 128 kb/s

MediaInfo

Формат : AVI
Формат/Информация : Audio Video Interleave
Размер файла : 662 Мбайт
Продолжительность : 54 м.
Общий поток : 1708 Кбит/сек
Режиссёр : rip by KimVlad
Программа кодирования : VirtualDubModRus 1.5.10.2 (build 2542/release)
Формат оригинала/Имя : Home Video
Видео
Идентификатор : 0
Формат : MPEG-4 Visual
Профиль формата : Simple@L1
Параметр BVOP формата : Нет
Параметр QPel формата : Нет
Параметр GMC формата : Без точки перехода
Параметр матрицы формата : Default (H.263)
Идентификатор кодека : XVID
Идентификатор кодека/Подсказка : XviD
Продолжительность : 54 м.
Битрейт : 1570 Кбит/сек
Ширина : 704 пикселя
Высота : 448 пикселей
Соотношение сторон : 1,571
Частота кадров : 25,000 кадров/сек
Цветовое пространство : YUV
Субдискретизация насыщенности : 4:2:0
Битовая глубина : 8 бит
Тип развёртки : Прогрессивная
Метод сжатия : С потерями
Бит/(Пиксели*Кадры) : 0.191
Размер потока : 583 Мбайт (88%)
Библиотека кодирования : Lavc52.83.0
Аудио
Идентификатор : 1
Формат : MPEG Audio
Версия формата : Version 1
Профиль формата : Layer 3
Режим : Joint stereo
Расширение режима : MS Stereo
Идентификатор кодека : 55
Идентификатор кодека/Подсказка : MP3
Продолжительность : 54 м.
Вид битрейта : Постоянный
Битрейт : 128 Кбит/сек
Каналы : 2 канала
Частота : 48,0 КГц
Метод сжатия : С потерями
Размер потока : 49,6 Мбайт (7%)
Выравнивание : Разделение по промежуткам

Скриншоты

[Торрент-статистика]
[Профиль]  [ЛС] 
Показать сообщения:    
Ответить на тему

Текущее время: Сегодня 18:33

Часовой пояс: GMT + 4



Вы не можете начинать темы
Вы не можете отвечать на сообщения
Вы не можете редактировать свои сообщения
Вы не можете удалять свои сообщения
Вы не можете голосовать в опросах
Вы не можете прикреплять файлы к сообщениям
Вы не можете скачивать файлы