Взлом / Breaking In / Сезон: 1 / Серии: 1-7 (7) (Сет Гордон, Фред Сэвэдж, Мэтт Шекман) [2011 г., комедия, WEB-DL 720p] Кубик в Кубе

Ответить на тему
 
Автор
Сообщение

awk05 ®

Пол:

Стаж: 6 лет 5 месяцев

Сообщений: 1347

Репутация: 275 [+] [-]

Откуда: Западная Украина Ривне

Пост 14-Июн-2012 16:38

[Цитировать] 

Взлом / Breaking In --Год выпуска: 2011
Страна: США
Жанр: комедия
Сезон/Серия: Сезон:1 /Серия 1-7 из 7
Продолжительность: 7 х 00:22:00
Перевод: Профессиональный (двухголосый)
Озвучка / Автор перевода: Кубик в Кубе
Субтитры: English--Режиссер: Сет Гордон, Фред Сэвэдж, Мэтт Шекман--В ролях: Одетт Юстман, Кристиан Слэйтер, Брэт Харрисон, Альфонсо Маколи, Майкл Розенбаум--Описание: BREAKING IN это не совсем обычная получасовая комедия про высоко-качественую техническую фирму по обеспечению безопасности, которая принимает экстремальные и очень часто сомнительные меры для того что бы их услуги продавались успешнее. Созданая Адамом Голдбергом и Сэтом Гордоном, команда компьютерных талантливых чудаков гениев, работает на мастера манипуляции.
Название фирмы - Contra Security (Контра Секьюрити), корпоративный ответ Америки на известный сериал "Команда А". Фирму возглавляет Оз (Кристиан Слэйтер), человек тайны и мастер манипуляций. Команда фирмы включает в себя: Мэлани(Одетт Юстман), которая специализируется на вскрывании замков, безопасном взломе и разбивании сердец; а также Кэша (Альфонсо МакОли), приколист который специализируется на стратегии, логистике и профессиональным офисным шалостям, которые мог-бы придумать только полный безумец.
У Оза новобранец, вырваный прямо из коледжа, милый и очаровательный Кэмерон Прайс ( Брэт Харрисон). К сожалению для Кэмирона, взлом лучших систем безопасности нааааамного легче, чем найти общий язык с его сотрудниками. Между подавляющей сексуальностью Мэлани и дедовщиной Кэша, у Кэмерона больше чем пару препятствий для того что бы стать полноправным членом лучшей команды по безопасности.--Качество видео: WEB-DL 720p
Формат видео: MKV
Видео кодек: AVC (High@L3.1)
Аудио кодек: AC-3
Видео: AVC, 1280x720 (16:9), 23.976 fps, 3 857 Kbps (0.175 bit/pixel)
Аудио 1: AC-3, 48.0 KHz, 6 ch, 448 Kbps, CBR, 16 бит [Русский]
Аудио 2: AC-3, 48.0 KHz, 6 ch, 384 Kbps, CBR, 16 бит [Английский] -- --

Список серий

01. Pilot
02. Tis Better to Have Loved and Flossed
03. The Need for Speed
04. White on White on White
05. Take the Movie and Run
06. Breaking Out
07. 21.0 Jump Street

MediaInfo

Код:
General
Unique ID                                : 212116963565713444293683654681950115394 (0x9F943DBE424719A89BB30D54869F5642)
Complete name                            : E:\СЕРИАЛЫ\Взлом\Breaking.In.s01.WEB-DL.720p\Breaking.In.s01e01.WEB-DL.720p.Rus.Eng.mkv
Format                                   : Matroska
Format version                           : Version 2
File size                                : 725 MiB
Duration                                 : 21mn 11s
Overall bit rate                         : 4 784 Kbps
Encoded date                             : UTC 2011-04-11 16:14:22
Writing application                      : mkvmerge v3.4.0 ('Rapunzel') сборка от May 15 2010 09:38:20
Writing library                          : libebml v0.8.0 + libmatroska v0.9.0
Video
ID                                       : 1
Format                                   : AVC
Format/Info                              : Advanced Video Codec
Format profile                           : High@L3.1
Format settings, CABAC                   : No
Format settings, ReFrames                : 2 frames
Codec ID                                 : V_MPEG4/ISO/AVC
Duration                                 : 21mn 11s
Bit rate                                 : 3 857 Kbps
Width                                    : 1 280 pixels
Height                                   : 720 pixels
Display aspect ratio                     : 16:9
Frame rate mode                          : Constant
Frame rate                               : 23.976 fps
Color space                              : YUV
Chroma subsampling                       : 4:2:0
Bit depth                                : 8 bits
Scan type                                : Progressive
Bits/(Pixel*Frame)                       : 0.175
Stream size                              : 585 MiB (81%)
Title                                    : Breaking In - 01x01 - Pilot
Language                                 : English
Default                                  : Yes
Forced                                   : No
Color primaries                          : BT.709
Transfer characteristics                 : BT.709
Matrix coefficients                      : BT.709
Audio #1
ID                                       : 2
Format                                   : AC-3
Format/Info                              : Audio Coding 3
Mode extension                           : CM (complete main)
Format settings, Endianness              : Big
Codec ID                                 : A_AC3
Duration                                 : 21mn 11s
Bit rate mode                            : Constant
Bit rate                                 : 448 Kbps
Channel count                            : 6 channels
Channel positions                        : Front: L C R, Side: L R, LFE
Sampling rate                            : 48.0 KHz
Bit depth                                : 16 bits
Compression mode                         : Lossy
Stream size                              : 67.9 MiB (9%)
Language                                 : Russian
Default                                  : Yes
Forced                                   : No
Audio #2
ID                                       : 3
Format                                   : AC-3
Format/Info                              : Audio Coding 3
Mode extension                           : CM (complete main)
Format settings, Endianness              : Big
Codec ID                                 : A_AC3
Duration                                 : 21mn 11s
Bit rate mode                            : Constant
Bit rate                                 : 384 Kbps
Channel count                            : 6 channels
Channel positions                        : Front: L C R, Side: L R, LFE
Sampling rate                            : 48.0 KHz
Bit depth                                : 16 bits
Compression mode                         : Lossy
Stream size                              : 58.2 MiB (8%)
Language                                 : English
Default                                  : No
Forced                                   : No
Text
ID                                       : 4
Format                                   : UTF-8
Codec ID                                 : S_TEXT/UTF8
Codec ID/Info                            : UTF-8 Plain Text
Language                                 : English
Default                                  : No
Forced                                   : No

Скриншоты


_________________


Последний раз редактировалось: awk05 (2014-08-08 21:46), всего редактировалось 6 раз(а)
[Торрент-статистика]
[Профиль]  [ЛС] 

TYAnCE

Пол:

Стаж: 6 лет 11 месяцев

Сообщений: 269

Репутация: 65 [+] [-]

Откуда: Туапсе

Пост 30-Окт-2012 19:38 (спустя 4 месяца 16 дней)

[Цитировать] 

Взлом / Breaking In (Сет Гордон) [2011 г., комедия, WEB-DL 720p]
Автор, несколько релизов с подобным названием изменила. Обязательно должен быть указан сезон, серии и общее количество серий. В следующий раз будьте пожалуйста внимательнее ad

_________________
[Торрент-статистика]
[Профиль]  [ЛС] 
Показать сообщения:    
Ответить на тему

Текущее время: Сегодня 09:53

Часовой пояс: GMT + 4



Вы не можете начинать темы
Вы не можете отвечать на сообщения
Вы не можете редактировать свои сообщения
Вы не можете удалять свои сообщения
Вы не можете голосовать в опросах
Вы не можете прикреплять файлы к сообщениям
Вы не можете скачивать файлы