Виртуозы / Hustle / Сезон:7 / Серия 1-6 из 6(Олрик Райли, Отто Баферст, Роджер Голдби)[2004 г., драма, криминал, детектив, DVDRip-AVC]MVO Fox Crime

Ответить на тему
 
Автор
Сообщение

awk05 ®

Пол:

Стаж: 5 лет 11 месяцев

Сообщений: 1352

Репутация: 275 [+] [-]

Откуда: Западная Украина Ривне

Пост 14-Июн-2012 15:44

[Цитировать] 

--Виртуозы / Hustle -- Год выпуска: 2011
Страна: Великобритания, BBC
Жанр: драма, криминал, детектив
Сезон/Серия: Сезон:7 /Серия 1-6 из 6
Продолжительность: 6 х ~ 00:52:00
Перевод: Профессиональный (многоголосый, закадровый)
Озвучка / Автор перевода: FOX Crime
Субтитры: отсутствуют--Режиссер: Олрик Райли, Стефан Шварц, Джулиан Симпсон--В ролях: Роберт Гленистер (Ash Morgan), Роберт Вон (Albert Stroller), Роб Джарвис (Eddie), Адриан Лестер (Mickey Stone), Марк Уоррен (Danny Blue), Джейми Мюррэй (Stacie Monroe), Мэтт Ди Анджело (Sean Kennedy), Келли Адамс (Emma Kennedy), Эшли Уолтерс (Billy Bond), и др.--Описание: С целью экспроприации незаконно нажитых средств у малосимпатичных личностей шайка обаятельных мошенников разрабатывает и претворяет в жизнь умопомрачительные комбинации, которым мог бы позавидовать сам Остап Бендер. Мики — лидер группы, который придумывает все планы. Альберт — старый мошенник, который в последнее время занимается только подбором подходящих «жертв». Эш придумывает все местоположения и оборудование, необходимое для операции. Стэйси вступает всякий раз, когда группе нужно использовать ее женскую хитрость. Дэнни — молодой мошенник-любитель, которого Мики берет под свое крыло.--Качество видео: DVDRip-AVC
Формат видео: AVI
Видео кодек: MPEG4, XviD
Аудио кодек: AC-3
Видео: MPEG4, XviD, 624x352 (16:9), 25.000 fps, 1 205 Kbps (0.219 bit/pixel)
Аудио: AC-3, 48.0 KHz, 2 ch, 192 Kbps, CBR, 16 bits [Русский] -- --

Кадры из фильма



Тех. данные (MI)

Код:
Общее
Полное имя                               : E:\СЕРИАЛЫ\Виртуозы\Hustle S7\Hustle S7-E1.avi
Формат                                   : AVI
Формат/Информация                        : Audio Video Interleave
Размер файла                             : 575 Мбайт
Продолжительность                        : 57 м.
Общий поток                              : 1407 Кбит/сек
Программа кодирования                    : VirtualDubMod 1.5.10.3 (build 2550/release)
Библиотека кодирования                   : VirtualDub build 30091/release
Видео
Идентификатор                            : 0
Формат                                   : MPEG-4 Visual
Профиль формата                          : Advanced Simple@L5
Параметр BVOP формата                    : 2
Параметр QPel формата                    : Нет
Параметр GMC формата                     : Без точки перехода
Параметр матрицы формата                 : Default (H.263)
Идентификатор кодека                     : XVID
Идентификатор кодека/Подсказка           : XviD
Продолжительность                        : 57 м.
Битрейт                                  : 1205 Кбит/сек
Ширина                                   : 624 пикселя
Высота                                   : 352 пикселя
Соотношение сторон                       : 16:9
Частота кадров                           : 25,000 кадров/сек
Цветовое пространство                    : YUV
Субдискретизация насыщенности            : 4:2:0
Битовая глубина                          : 8 бит
Тип развёртки                            : Прогрессивная
Метод сжатия                             : С потерями
Бит/(Пиксели*Кадры)                      : 0.219
Размер потока                            : 492 Мбайт (86%)
Библиотека кодирования                   : XviD 1.2.1 (UTC 2008-12-04)
Аудио
Идентификатор                            : 1
Формат                                   : MPEG Audio
Версия формата                           : Version 1
Профиль формата                          : Layer 3
Идентификатор кодека                     : 55
Идентификатор кодека/Подсказка           : MP3
Продолжительность                        : 57 м.
Вид битрейта                             : Постоянный
Битрейт                                  : 192 Кбит/сек
Каналы                                   : 2 канала
Частота                                  : 48,0 КГц
Метод сжатия                             : С потерями
Размер потока                            : 78,4 Мбайт (14%)
Выравнивание                             : Соединение по промежуткам
Продолжительность промежутка             : 40  мс. (1,00 видеокадр)
Время предзагрузки промежутка            : 504  мс.
Библиотека кодирования                   : LAME3.97
Настройки программы                      : -m s -V 4 -q 3 -lowpass 18.6 -b 192
«СЕЗОН 1» «СЕЗОН 2» «СЕЗОН 3» «СЕЗОН 4» «СЕЗОН 5» «СЕЗОН 6» «СЕЗОН 7» «СЕЗОН 8»

_________________
[Торрент-статистика]
[Профиль]  [ЛС] 
Показать сообщения:    
Ответить на тему

Текущее время: Сегодня 23:48

Часовой пояс: GMT + 4



Вы не можете начинать темы
Вы не можете отвечать на сообщения
Вы не можете редактировать свои сообщения
Вы не можете удалять свои сообщения
Вы не можете голосовать в опросах
Вы не можете прикреплять файлы к сообщениям
Вы не можете скачивать файлы