Виртуозы / Hustle / Сезон:3 / Серия 1-6 из 6(Олрик Райли, Отто Баферст, Роджер Голдби)[2004 г., драма, криминал, детектив, HDTVRip]MVO FOX Crime

Ответить на тему
 
Автор
Сообщение

awk05 ®

Пол:

Стаж: 6 лет 2 месяца

Сообщений: 1351

Репутация: 275 [+] [-]

Откуда: Западная Украина Ривне

Пост 14-Июн-2012 15:09

[Цитировать] 

--Виртуозы / Hustle-- Год выпуска: 2006
Страна: Великобритания, BBC
Жанр: драма, криминал, детектив
Сезон/Серия: Сезон:3 /Серия 1-6 из 6
Продолжительность: 6 х ~ 00:52:00
Перевод: Профессиональный (многоголосый, закадровый)
Озвучка / Автор перевода: FOX Crime
Субтитры: отсутствуют--Режиссер: Олрик Райли, Стефан Шварц, Джулиан Симпсон--В ролях: Роберт Гленистер (Ash Morgan), Роберт Вон (Albert Stroller), Роб Джарвис (Eddie), Адриан Лестер (Mickey Stone), Марк Уоррен (Danny Blue), Джейми Мюррэй (Stacie Monroe), Мэтт Ди Анджело (Sean Kennedy), Келли Адамс (Emma Kennedy), Эшли Уолтерс (Billy Bond), и др.--Описание: С целью экспроприации незаконно нажитых средств у малосимпатичных личностей шайка обаятельных мошенников разрабатывает и претворяет в жизнь умопомрачительные комбинации, которым мог бы позавидовать сам Остап Бендер. Мики — лидер группы, который придумывает все планы. Альберт — старый мошенник, который в последнее время занимается только подбором подходящих «жертв». Эш придумывает все местоположения и оборудование, необходимое для операции. Стэйси вступает всякий раз, когда группе нужно использовать ее женскую хитрость. Дэнни — молодой мошенник-любитель, которого Мики берет под свое крыло.--Качество видео: HDTVRip
Формат видео: AVI
Видео кодек: MPEG4, XviD
Аудио кодек: AC-3
Видео: MPEG4, XviD, 720x400 (16:9), 25.000 fps, 1 684 Kbps (0.234 bit/pixel)
Аудио: AC-3, 48.0 KHz, 2 ch, 192 Kbps, CBR, 16 bits [Русский] -- --

Кадры из фильма




Тех. данные (MI)

Код:
Общее
Полное имя                               : E:\СЕРИАЛЫ\Виртуозы\Виртуозы  (Сезон 3)\Hustle.S03E01.HDTV.FOX.Crime.avi
Формат                                   : AVI
Формат/Информация                        : Audio Video Interleave
Размер файла                             : 701 Мбайт
Продолжительность                        : 51 м.
Общий поток                              : 1886 Кбит/сек
Программа кодирования                    : VirtualDubMod 1.5.10.3 | www.virtualdub-fr.org || (build 2550/release)
Библиотека кодирования                   : VirtualDubMod build 2550/release
Видео
Идентификатор                            : 0
Формат                                   : MPEG-4 Visual
Профиль формата                          : Advanced Simple@L5
Параметр BVOP формата                    : 2
Параметр QPel формата                    : Нет
Параметр GMC формата                     : Без точки перехода
Параметр матрицы формата                 : Default (MPEG)
Режим смешивания                         : Сжатый битовый поток
Идентификатор кодека                     : XVID
Идентификатор кодека/Подсказка           : XviD
Продолжительность                        : 51 м.
Битрейт                                  : 1684 Кбит/сек
Ширина                                   : 720 пикселей
Высота                                   : 400 пикселей
Соотношение сторон                       : 16:9
Частота кадров                           : 25,000 кадров/сек
Цветовое пространство                    : YUV
Субдискретизация насыщенности            : 4:2:0
Битовая глубина                          : 8 бит
Тип развёртки                            : Прогрессивная
Метод сжатия                             : С потерями
Бит/(Пиксели*Кадры)                      : 0.234
Размер потока                            : 626 Мбайт (89%)
Библиотека кодирования                   : XviD 1.2.1 (UTC 2008-12-04)
Аудио
Идентификатор                            : 1
Формат                                   : AC-3
Формат/Информация                        : Audio Coding 3
Расширение режима                        : CM (complete main)
Параметр Endianness формата              : Big
Идентификатор кодека                     : 2000
Продолжительность                        : 51 м.
Вид битрейта                             : Постоянный
Битрейт                                  : 192 Кбит/сек
Каналы                                   : 2 канала
Расположение каналов                     : Front: L R
Частота                                  : 48,0 КГц
Битовая глубина                          : 16 бит
Метод сжатия                             : С потерями
Размер потока                            : 71,4 Мбайт (10%)
Выравнивание                             : Разделение по промежуткам
Продолжительность промежутка             : 40  мс. (1,00 видеокадр)
Время предзагрузки промежутка            : 500  мс.
«СЕЗОН 1» «СЕЗОН 2» «СЕЗОН 3» «СЕЗОН 4» «СЕЗОН 5» «СЕЗОН 6» «СЕЗОН 7» «СЕЗОН 8»

_________________


Последний раз редактировалось: awk05 (2014-08-25 22:07), всего редактировалось 5 раз(а)
[Торрент-статистика]
[Профиль]  [ЛС] 

Браток

Пол:

Стаж: 6 лет 8 месяцев

Сообщений: 1

Репутация: 1 [+] [-]

Пост 21-Дек-2012 17:50 (спустя 6 месяцев 7 дней)

[Цитировать] 

<del> оформление исправлено

_________________
[Торрент-статистика]
[Профиль]  [ЛС] 
Показать сообщения:    
Ответить на тему

Текущее время: Сегодня 20:15

Часовой пояс: GMT + 4



Вы не можете начинать темы
Вы не можете отвечать на сообщения
Вы не можете редактировать свои сообщения
Вы не можете удалять свои сообщения
Вы не можете голосовать в опросах
Вы не можете прикреплять файлы к сообщениям
Вы не можете скачивать файлы