Виртуозы / Hustle / Сезон:1 / Серия 1-6 из 6(Олрик Райли, Отто Баферст, Роджер Голдби)[2004 г., драма, криминал, детектив, DVDRip-AVC]MVO Man TV

Ответить на тему
 
Автор
Сообщение

awk05 ®

Пол:

Стаж: 6 лет 3 месяца

Сообщений: 1351

Репутация: 275 [+] [-]

Откуда: Западная Украина Ривне

Пост 14-Июн-2012 14:45

[Цитировать] 

--Виртуозы / Hustle -- Год выпуска: 2004
Страна: Великобритания, BBC
Жанр: драма, криминал, детектив
Сезон/Серия: Сезон:1 /Серия 1-6 из 6
Продолжительность: 6 х ~ 00:52:00
Перевод: Профессиональный (многоголосый, закадровый)
Озвучка / Автор перевода: ManTV
Субтитры: отсутствуют--Режиссер: Олрик Райли, Стефан Шварц, Джулиан Симпсон--В ролях: Роберт Гленистер (Ash Morgan), Роберт Вон (Albert Stroller), Роб Джарвис (Eddie), Адриан Лестер (Mickey Stone), Марк Уоррен (Danny Blue), Джейми Мюррэй (Stacie Monroe), Мэтт Ди Анджело (Sean Kennedy), Келли Адамс (Emma Kennedy), Эшли Уолтерс (Billy Bond), и др.--Описание: Сериал описывает жизнь группы мошенников, зарабатывающих на жизнь выманиванием денег у богатых жителей Туманного Альбиона. Умело совмещая свои навыки, дерзкая пятерка с каждой серией проявляет все больше изобретательности для получения легких денег. Серии построены согласно общему стандарту: поиск потенциального клиента, разработка легенды, воплощение командой разработанной схемы в жизнь и финал, как правило, счастливый для мошенников и печальный для жертвы. Подготовленная легенда предлагает жертве участвовать в мероприятии, сулящем высокий процент прибыли. Одна лишь проблема — мероприятие, предлагаемое мошенниками, не совсем законно. Решение об участии всегда остается на стороне жертвы, без принуждения. Так как у мошенников существует свой кодекс чести, операции осуществляются исключительно с нечистыми на руку богачами.--Качество видео: DVDRip-AVC
Формат видео: AVI
Видео кодек: MPEG4, XviD
Аудио кодек: AC-3
Видео: MPEG4, XviD, 640x352 (16:9), 25.000 fps, 1 682 Kbps (0.299 bit/pixel)
Аудио 1: AC-3, 48.0 KHz, 2 ch, 192 Kbps, CBR, 16 bits [Русский]
Аудио 2: AC-3, 48.0 KHz, 2 ch, 192 Kbps, CBR, 16 bits [Английский] -- --

Скриншоты



Тех. данные (MI)

Код:
Общее
Полное имя                               : E:\СЕРИАЛЫ\Виртуозы\Hustle - Season 1 (ManTV)\hustle.s01e01.dvdrip.rus(mantv).eng_NewStudio.TV.avi
Формат                                   : AVI
Формат/Информация                        : Audio Video Interleave
Размер файла                             : 773 Мбайт
Продолжительность                        : 51 м.
Общий поток                              : 2080 Кбит/сек
Программа кодирования                    : VirtualDubMod 1.5.10.2 (build 2540/release)
Библиотека кодирования                   : VirtualDubMod build 2540/release
Видео
Идентификатор                            : 0
Формат                                   : MPEG-4 Visual
Профиль формата                          : Advanced Simple@L5
Параметр BVOP формата                    : 2
Параметр QPel формата                    : Нет
Параметр GMC формата                     : Без точки перехода
Параметр матрицы формата                 : Default (H.263)
Режим смешивания                         : Сжатый битовый поток
Идентификатор кодека                     : XVID
Идентификатор кодека/Подсказка           : XviD
Продолжительность                        : 51 м.
Битрейт                                  : 1682 Кбит/сек
Ширина                                   : 640 пикселей
Высота                                   : 352 пикселя
Соотношение сторон                       : 16:9
Частота кадров                           : 25,000 кадров/сек
Цветовое пространство                    : YUV
Субдискретизация насыщенности            : 4:2:0
Битовая глубина                          : 8 бит
Тип развёртки                            : Прогрессивная
Метод сжатия                             : С потерями
Бит/(Пиксели*Кадры)                      : 0.299
Размер потока                            : 625 Мбайт (81%)
Библиотека кодирования                   : XviD 1.0.3 (UTC 2004-12-20)
Аудио #1
Идентификатор                            : 1
Формат                                   : AC-3
Формат/Информация                        : Audio Coding 3
Расширение режима                        : CM (complete main)
Параметр Endianness формата              : Big
Идентификатор кодека                     : 2000
Продолжительность                        : 51 м.
Вид битрейта                             : Постоянный
Битрейт                                  : 192 Кбит/сек
Каналы                                   : 2 канала
Расположение каналов                     : Front: L R
Частота                                  : 48,0 КГц
Битовая глубина                          : 16 бит
Метод сжатия                             : С потерями
Размер потока                            : 71,3 Мбайт (9%)
Выравнивание                             : Разделение по промежуткам
Продолжительность промежутка             : 40  мс. (1,00 видеокадр)
Время предзагрузки промежутка            : 500  мс.
Аудио #2
Идентификатор                            : 2
Формат                                   : AC-3
Формат/Информация                        : Audio Coding 3
Расширение режима                        : CM (complete main)
Параметр Endianness формата              : Big
Идентификатор кодека                     : 2000
Продолжительность                        : 51 м.
Вид битрейта                             : Постоянный
Битрейт                                  : 192 Кбит/сек
Каналы                                   : 2 канала
Расположение каналов                     : Front: L R
Частота                                  : 48,0 КГц
Битовая глубина                          : 16 бит
Метод сжатия                             : С потерями
Задержка видео                           : 16 мс.
Размер потока                            : 71,4 Мбайт (9%)
Выравнивание                             : Разделение по промежуткам
Продолжительность промежутка             : 40  мс. (1,00 видеокадр)
Время предзагрузки промежутка            : 500  мс.
«СЕЗОН 1» «СЕЗОН 2» «СЕЗОН 3» «СЕЗОН 4» «СЕЗОН 5» «СЕЗОН 6» «СЕЗОН 7» «СЕЗОН 8»

_________________
[Торрент-статистика]
[Профиль]  [ЛС] 
Показать сообщения:    
Ответить на тему

Текущее время: Сегодня 05:57

Часовой пояс: GMT + 4



Вы не можете начинать темы
Вы не можете отвечать на сообщения
Вы не можете редактировать свои сообщения
Вы не можете удалять свои сообщения
Вы не можете голосовать в опросах
Вы не можете прикреплять файлы к сообщениям
Вы не можете скачивать файлы