Доктор Хаус / House M.D. / Сезон: 8 / Серии: 1-22 (22) + Special (Грег Яйтанс, Питер О’Фаллон, Мэтт Сакма) [2011, драма, детектив, WEB-DL 720p] MVO LostFilm + rus sub

Ответить на тему
 
Автор
Сообщение

nova1980 ®

Пол:

Стаж: 6 лет 11 месяцев

Сообщений: 815

Репутация: 527 [+] [-]

Откуда: Одесса Мама

Пост 24-Май-2012 00:29

[Цитировать] 

-Доктор Хаус / House M.D.- -Год выпуска: 2011
Страна: США
Жанр: драма, детектив
Продолжительность серии: ~00:43:00
Перевод: профессиональный многоголосый закадровый, LostFilm
Мед. консультант: Доцент кафедры педиатрии СПбГПМА - М.А.Ткаченко
Озвучка: Студия "Кравец"
Русские субтитры: есть
Субтитры: Русские, Английские
Режиссёр: Грег Яйтанс, Питер О’Фаллон, Мэтт Сакма
В ролях: Хью Лори, Омар Эппс, Роберт Шон Леонард, Джесси Спенсер, Оливия Уайлд, Питер Джекобсон, Одетт Эннэйбл, Шарлин Йи-Описание: Сериал House, M.D. рассказывает о команде врачей, которые должны правильно поставить диагноз пациенту и спасти его. В принципе сериал представляет из себя вариацию схемы «врач как детектив», но в отличие от остальных сериалов, где врачи обследуют уже мертвого пациента, в House, M.D. больной находится еще в живых.Возглавляет команду доктор Грегори Хаус, который ходит с тростью после того, как его мышечный инфаркт в правой ноге слишком поздно правильно диагностировали. Как врач Хаус просто гений, но сам не отличается проникновенностью в общении с больными и с удовольствием избегает их, если только есть возможность. Он сам всё время проводит в борьбе с собственной болью, а трость в его руке только подчеркивает его жесткую, ядовитую манеру общения. Порой его поведение можно назвать почти бесчеловечным, и при этом он прекрасный врач, обладающий нетипичным умом и безупречным инстинктом, что снискало ему глубокое уважение. Будучи инфекционистом, он ещё и замечательный диагност, который любит разгадывать медицинские загадки, чтобы спасти кому-то жизнь. Если бы все было по его воле, то Хаус лечил бы больных не выходя из своего кабинета.-Сэпмл: http://multi-up.com/569794-Качество: WEB-DL 720p
Формат: MKV
Видео кодек: H.264
Аудио кодек: AC3
Видео: MPEG-4 AVC, 1280x720, 23.976 fps, ~4000 kbps, 0.183 bit/pixel
Аудио #1: Русский: 48 kHz, AC3, 3/2 (L,C,R,l,r) + LFE ch, ~384.00 kbps avg |Многоголосый закадровый, LostFilm|
Аудио #2: Английский: 48 kHz, AC3, 3/2 (L,C,R,l,r) + LFE ch, ~384.00 kbps avg
Субтитры: Русские, Английские

Список серий

1. Twenty Vicodin / Двадцать викодинок
2. Transplant / Трансплант
3. Charity Case / Благотворительность
4. Risky Business / Рискованный бизнес
5. The Confession / Исповедь
6. Parents / Родители
7. Dead & Buried / Мертв и погребён
8. Perils of Paranoia / Параноики
9. Better Half / Лучшая половина
10. Runaways / Беглецы
11. Nobody's Fault / Никто не виноват
12. Chase / Чейз
13. Man of the House / Хозяин
14. Love is Blind / Любовь слепа
15. Blowing the Whistle / Измена
16. Gut Check / Проверка на вшивость
17. We Need the Eggs / У каждого свои тараканы
18. Body and Soul / Тело и душа
19. The C Word / Слово на букву Р
20. Post Mortem / После смерти
21. Holding On / Цепляясь за жизнь
22. Everybody Dies / Все умрут
Special. Swan Song / Лебединая песня

MI

GeneralComplete name : House.M.D.S08E02.720p.WEB-DL.Rus.Eng.mkvFormat : MatroskaFile size : 1.47 GiBDuration : 43mn 47sOverall bit rate : 4 794 KbpsEncoded date : UTC 2011-10-12 19:20:13Writing application : mkvmerge v5.0.0 ('Die Wahre Liebe') built on Sep 25 2011 20:33:49Writing library : libebml v1.2.2 + libmatroska v1.3.0
VideoID : 1Format : AVCFormat/Info : Advanced Video CodecFormat profile : High@L3.1Format settings, CABAC : NoFormat settings, ReFrames : 2 framesFormat settings, GOP : M=2, N=48Codec ID : V_MPEG4/ISO/AVCDuration : 43mn 47sBit rate : 3 931 KbpsWidth : 1 280 pixelsHeight : 720 pixelsDisplay aspect ratio : 16:9Frame rate : 23.976 fpsColor space : YUVChroma subsampling : 4:2:0Bit depth : 8 bitsScan type : ProgressiveBits/(Pixel*Frame) : 0.178Stream size : 1.20 GiB (82%)Language : EnglishColor primaries : BT.709-5, BT.1361, IEC 61966-2-4, SMPTE RP177Transfer characteristics : BT.709-5, BT.1361Matrix coefficients : BT.709-5, BT.1361, IEC 61966-2-4 709, SMPTE RP177
Audio #1ID : 2Format : AC-3Format/Info : Audio Coding 3Mode extension : CM (complete main)Codec ID : A_AC3Duration : 43mn 47sBit rate mode : ConstantBit rate : 384 KbpsChannel(s) : 6 channelsChannel positions : Front: L C R, Side: L R, LFESampling rate : 48.0 KHzBit depth : 16 bitsCompression mode : LossyStream size : 120 MiB (8%)Language : Russian
Audio #2ID : 3Format : AC-3Format/Info : Audio Coding 3Mode extension : CM (complete main)Codec ID : A_AC3Duration : 43mn 47sBit rate mode : ConstantBit rate : 384 KbpsChannel(s) : 6 channelsChannel positions : Front: L C R, Side: L R, LFESampling rate : 48.0 KHzBit depth : 16 bitsCompression mode : LossyStream size : 120 MiB (8%)Language : English
Text #1ID : 4Format : UTF-8Codec ID : S_TEXT/UTF8Codec ID/Info : UTF-8 Plain TextLanguage : Russian
Text #2ID : 5Format : UTF-8Codec ID : S_TEXT/UTF8Codec ID/Info : UTF-8 Plain TextLanguage : English

Скриншоты


_________________
Мои Раздачи
[Торрент-статистика]
[Профиль]  [ЛС] 
Показать сообщения:    
Ответить на тему

Текущее время: Сегодня 04:18

Часовой пояс: GMT + 4



Вы не можете начинать темы
Вы не можете отвечать на сообщения
Вы не можете редактировать свои сообщения
Вы не можете удалять свои сообщения
Вы не можете голосовать в опросах
Вы не можете прикреплять файлы к сообщениям
Вы не можете скачивать файлы