Лига справедливости Зака Снайдера / Justice League Snyders Cut (Зак Снайдер) [2021,Фантастика, фэнтези, боевик, супергерой,WEB-DLRip - HEVC - 1080p] [DUB Кинопоиск HD +Eng]+[Subs Rus , ENG]

Ответить на тему
 
Автор
Сообщение

Враг Нароода ®

Пол:

Стаж: 3 года 3 месяца

Сообщений: 233

Репутация: 291 [+] [-]

Откуда: Красногорск

Пост 21-Мар-2021 12:07

[Цитировать] 

---- -- Лига справедливости Зака Снайдера / Justice League Snyders Cut -Год выпуска: 2021
Выпущено: США, Atlas Entertainment, DC Entertainment, DC Films
Жанр: Фантастика, фэнтези, боевик, супергерой, комикс, сюрреализм
Продолжительность: 04:02:03
Озвучка #1: Дублированный- Кинопоиск HD -Русский
Озвучка # 2: Профессиональный многоголосый -Английский- Оригинал--

Субтитры :


Субтитры (UTF-8):вшитые
#1 - Русские - Russian (включены по умолчанию)
#2 - Русские- Russian (Forced)
#3- Английские - English (SDH)


Внешние:
#1 - Русские - Russian
#2 - Русские- Russian (Forced)
#3- Английские - English (SDH)
--Релиз Без Рекламы --MDB 8.6 --Режиссер:
Зак Снайдер --В ролях: Джаред Лето, Генри Кавилл, Эмбер Хёрд, Галь Гадот, Бен Аффлек, Эми Адамс, Джейсон Момоа, Конни Нильсен, Робин Райт, Дайан Лэйн -- Вдохновившись самопожертвованием Супермена, Брюс Уэйн вновь обретает веру в человечество. Он заручается поддержкой новой союзницы Дианы Принс, чтобы сразиться с ещё более могущественным противником. Бэтмен и Чудо-женщина набирают команду сверхлюдей для борьбы с пробудившейся угрозой.-- --Качество : WEB-DLRip - HEVC 10bit - 1080p
Формат: MKV
Видео кодек: H265
Видео: 2768 Кбит/сек,1920х1080 , (4,3),в 23.976 кадр/сек, HEVC (Main10@L4@Main)--Аудио Кодек:Аудио Кодек:AC3
Аудио #1: Russian DUB Кинопоиск HD @DD5.1 AAC , 453 Kbps, 48.0 KHz, 6 chch -Русский
Аудио #2: English @DD5.1 AAC , 468 Kbps, 48.0 KHz, 6 ch - Английский - Оригинал
Аудио #3: English @DD5.1 E-AC3, 768 Kbps, 48.0 KHz, 6 ch - Английский - Оригинал--

MediaInfo

Общее
Уникальный идентификатор : 147047224416703739628799976671483900577 (0x6EA043E9047F86E8717C46F7BC95B2A1)
Полное имя : D:\Лига справедливости Зака Снайдера - Justice League Snyders Cut\2021_ Justice League Snyders Cut_HEVC_DD5.1_N.B_HD_1080_Rus_Eng_\2021_ Justice League Snyders Cut_HEVC- 10Bit_Н265_DD5.1_N.B_HD_1080_Rus_Eng_.mkv
Формат : Matroska
Версия формата : Version 4
Размер файла : 7,54 Гбайт
Продолжительность : 4 ч. 2 м.
Общий поток : 4 462 Кбит/сек
Название фильма : 2021 Justice League Snyders Cut @ Nikolai.Baranov & PIRATIYA
Дата кодирования : UTC 2021-03-20 16:42:22
Программа кодирования : mkvmerge v55.0.0 ('Waiting For Space') 64-bit
Библиотека кодирования : libebml v1.4.2 + libmatroska v1.6.4
Видео
Идентификатор : 1
Формат : HEVC
Формат/Информация : High Efficiency Video Coding
Профиль формата : Main 10@L4@Main
Идентификатор кодека : V_MPEGH/ISO/HEVC
Продолжительность : 4 ч. 2 м.
Битрейт : 2 769 Кбит/сек
Ширина : 1 440 пикселей
Высота : 1 080 пикселей
Соотношение сторон : 4:3
Режим частоты кадров : Постоянный
Частота кадров : 23,976 (24000/1001) кадра/сек
Цветовое пространство : YUV
Субдискретизация насыщенности : 4:2:0
Битовая глубина : 10 бит
Бит/(Пиксели*Кадры) : 0.074
Размер потока : 4,68 Гбайт (62%)
Заголовок : Zack Snyder's Justice League.(2021).WEB-DL (HEVC)1080.[DUB].xz
Библиотека кодирования : x265 3.4+70-90fa80a85:[DJATOM's Mod][Windows][GCC 10.2.1][64 bit] 10bit
Настройки программы : cpuid=1111039 / frame-threads=4 / numa-pools=24 / wpp / no-pmode / no-pme / no-psnr / no-ssim / log-level=2 / input-csp=1 / input-res=1440x1080 / interlace=0 / total-frames=348323 / level-idc=0 / high-tier=1 / uhd-bd=0 / ref=1 / no-allow-non-conformance / no-repeat-headers / annexb / no-aud / no-hrd / info / hash=0 / no-temporal-layers / open-gop / min-keyint=23 / keyint=250 / gop-lookahead=0 / bframes=4 / b-adapt=2 / b-pyramid / bframe-bias=0 / rc-lookahead=25 / lookahead-slices=6 / scenecut=40 / hist-scenecut=0 / radl=0 / no-splice / no-intra-refresh / ctu=32 / min-cu-size=8 / no-rect / no-amp / max-tu-size=32 / tu-inter-depth=1 / tu-intra-depth=1 / limit-tu=0 / rdoq-level=0 / dynamic-rd=0.00 / ssim-rd / signhide / no-tskip / nr-intra=0 / nr-inter=0 / no-constrained-intra / strong-intra-smoothing / max-merge=3 / limit-refs=0 / no-limit-modes / me=1 / subme=3 / merange=57 / temporal-mvp / no-frame-dup / no-hme / no-weightp / no-weightb / no-analyze-src-pics / deblock=0:0 / no-sao / no-sao-non-deblock / rd=2 / selective-sao=0 / early-skip / rskip / fast-intra / no-tskip-fast / no-cu-lossless / no-b-intra / no-splitrd-skip / rdpenalty=0 / psy-rd=0.00 / psy-rdoq=0.00 / no-rd-refine / no-lossless / cbqpoffs=0 / crqpoffs=0 / rc=crf / crf=18.0 / qcomp=0.60 / qpstep=4 / stats-write=0 / stats-read=0 / ipratio=1.40 / pbratio=1.30 / aq-mode=4 / aq-strength=0.00 / cutree / zone-count=0 / no-strict-cbr / qg-size=32 / no-rc-grain / qpmax=69 / qpmin=0 / no-const-vbv / sar=0 / overscan=0 / videoformat=5 / range=0 / colorprim=1 / transfer=1 / colormatrix=1 / chromaloc=0 / display-window=0 / cll=0,0 / min-luma=0 / max-luma=1023 / log2-max-poc-lsb=8 / vui-timing-info / vui-hrd-info / slices=1 / no-opt-qp-pps / no-opt-ref-list-length-pps / no-multi-pass-opt-rps / scenecut-bias=0.05 / hist-threshold=0.01 / no-opt-cu-delta-qp / aq-motion / no-hdr10 / no-hdr10-opt / no-dhdr10-opt / no-idr-recovery-sei / analysis-reuse-level=0 / analysis-save-reuse-level=0 / analysis-load-reuse-level=0 / scale-factor=0 / refine-intra=0 / refine-inter=0 / refine-mv=1 / refine-ctu-distortion=0 / no-limit-sao / ctu-info=0 / no-lowpass-dct / refine-analysis-type=0 / copy-pic=1 / max-ausize-factor=1.0 / no-dynamic-refine / no-single-sei / hevc-aq / no-svt / no-field / qp-adaptation-range=1.00 / no-scenecut-aware-qpconformance-window-offsets / right=0 / bottom=0 / decoder-max-rate=0 / no-vbv-live-multi-pass
Язык : Russian
Default : Да
Forced : Нет
Цветовой диапазон : Limited
Основные цвета : BT.709
Характеристики трансфера : BT.709
Коэффициенты матрицы : BT.709
Аудио #1
Идентификатор : 4
Формат : AAC LC
Формат/Информация : Advanced Audio Codec Low Complexity
Идентификатор кодека : A_AAC-2
Продолжительность : 4 ч. 2 м.
Битрейт : 453 Кбит/сек
Каналы : 6 каналов
Channel layout : C L R Ls Rs LFE
Частота : 48,0 КГц
Частота кадров : 46,875 кадров/сек (1024 SPF)
Метод сжатия : С потерями
Размер потока : 784 Мбайт (10%)
Заголовок : Russian @DD5.1 AAC , 453 Kbps, 48.0 KHz, 6 ch
Язык : Russian
Default : Да
Forced : Нет
Аудио #2
Идентификатор : 5
Формат : AAC LC
Формат/Информация : Advanced Audio Codec Low Complexity
Идентификатор кодека : A_AAC-2
Продолжительность : 4 ч. 2 м.
Битрейт : 468 Кбит/сек
Каналы : 6 каналов
Channel layout : C L R Ls Rs LFE
Частота : 48,0 КГц
Частота кадров : 46,875 кадров/сек (1024 SPF)
Метод сжатия : С потерями
Размер потока : 809 Мбайт (10%)
Заголовок : English @DD5.1 AAC , 468 Kbps, 48.0 KHz, 6 ch
Язык : English
Default : Нет
Forced : Нет
Аудио #3
Идентификатор : 6
Формат : E-AC-3 JOC
Формат/Информация : Enhanced AC-3 with Joint Object Coding
Коммерческое название : Dolby Digital Plus with Dolby Atmos
Идентификатор кодека : A_EAC3
Продолжительность : 4 ч. 2 м.
Вид битрейта : Постоянный
Битрейт : 768 Кбит/сек
Каналы : 6 каналов
Channel layout : L R C LFE Ls Rs
Частота : 48,0 КГц
Частота кадров : 31,250 кадров/сек (1536 SPF)
Метод сжатия : С потерями
Задержка видео : 6 мс.
Размер потока : 1,30 Гбайт (17%)
Заголовок : English @DD5.1 E-AC3, 768 Kbps, 48.0 KHz, 6 ch
Язык : English
Service kind : Complete Main
Default : Нет
Forced : Нет
Complexity index : 16
Number of dynamic objects : 15
Bed channel count : 1 канал
Bed channel configuration : LFE
Текст #1
Идентификатор : 2
Формат : UTF-8
Идентификатор кодека : S_TEXT/UTF8
Идентификатор кодека/Информация : UTF-8 Plain Text
Продолжительность : 3 ч. 25 м.
Битрейт : 0 бит/сек
Count of elements : 19
Размер потока : 528 байт (0%)
Заголовок : rus (forced)
Язык : Russian
Default : Да
Forced : Нет
Текст #2
Идентификатор : 3
Формат : UTF-8
Идентификатор кодека : S_TEXT/UTF8
Идентификатор кодека/Информация : UTF-8 Plain Text
Продолжительность : 3 ч. 50 м.
Битрейт : 55 бит/сек
Count of elements : 1767
Размер потока : 93,6 Кбайт (0%)
Заголовок : rus (Ful)l.srt
Язык : Russian
Default : Нет
Forced : Нет
Текст #3
Идентификатор : 7
Формат : UTF-8
Идентификатор кодека : S_TEXT/UTF8
Идентификатор кодека/Информация : UTF-8 Plain Text
Продолжительность : 3 ч. 56 м.
Битрейт : 30 бит/сек
Count of elements : 2070
Размер потока : 53,3 Кбайт (0%)
Заголовок : English - SDH.
Язык : English
Default : Нет
Forced : Нет
Текст #4
Идентификатор : 8
Формат : UTF-8
Идентификатор кодека : S_TEXT/UTF8
Идентификатор кодека/Информация : UTF-8 Plain Text
Продолжительность : 4 ч. 0 м.
Битрейт : 40 бит/сек
Count of elements : 2799
Размер потока : 71,5 Кбайт (0%)
Заголовок : -English
Язык : English
Default : Нет
Forced : Нет
Меню
00:00:00.000 : ru:Глава 01 / ru:Глава 01 / ru:Глава 01 / ru:Глава 01 / ru:Глава 01 / ru:Глава 01 / ru:Глава 01 / ru:Глава 01
--

Скриншоты

---- -- -- ----Релиз от: Nikolai.Baranov & PIRATIYAПоблагодарить:
ЯД: 410017546713876
-- -- -- --Время раздачи : 24/7---

_________________

Легко быть оптимистом, когда судьба не валит с ног тяжелыми ударами, а лишь иногда легонько шлепает по заднице.
[Торрент-статистика]
[Профиль]  [ЛС] 
Показать сообщения:    
Ответить на тему

Текущее время: Сегодня 23:49

Часовой пояс: GMT + 4



Вы не можете начинать темы
Вы не можете отвечать на сообщения
Вы не можете редактировать свои сообщения
Вы не можете удалять свои сообщения
Вы не можете голосовать в опросах
Вы не можете прикреплять файлы к сообщениям
Вы не можете скачивать файлы