Бараны / Rams (Джереми Симс / Jeremy Sims) [2020, Австралия, Комедия, приключения, драма, BDRemux 1080p] Dub (iTunes) + Sub Rus Eng + Original Eng

Ответить на тему
 
Автор
Сообщение

Волк ®

Пол:

Стаж: 9 лет 3 месяца

Сообщений: 888

Репутация: 333 [+] [-]

Откуда: Армения

Пост 22-Фев-2021 00:42

[Цитировать] 

Бараны / Rams- Страна: Австралия
Студия: WBMC
Жанр: Комедия, приключения, драма
Год выпуска: 2020
Продолжительность: 01:58:50
Перевод: Профессиональный (дублированный) iTunes
Субтитры: Русские (Forced) Английские
Оригинальная аудиодорожка: Английский-Режиссер: Джереми Симс / Jeremy Sims-В ролях: Сэм Нил, Майкл Кейтон, Миранда Ричардсон, Ашер Кедди, Хейли МакЭлхинни, Леон Форд, Уэйн Блэр, Трэвис МакМахон, Ашер Ясбинчек, Кипан Ротбери-Описание: Упертый Колин и упрямый Лес – братья-фермеры. Они работают бок о бок, но не разговаривают друг с другом вот уже лет сорок. Из поколения в поколение их семья разводила баранов, которые не раз завоевывали почетное звание «Баран года». Но однажды баран Леса заболел, и власти постановили забить все стадо. Братья сделают все, чтобы спасти честь семьи и своих баранов, но как тут можно действовать молча?-IMDB | КиноПоиск | Сэмпл- -Премьера в Росcии 10 декабря 2020, «Парадиз»
Премьера в мире 29 октября 2020-Тип релиза: BDRemux 1080p
Контейнер: MKV
Видео: MPEG-4 AVC, 1920x1080, 20.7 Mbit/s, 24.000 fps
Аудио 1: 48 kHz, AC3 Dolby Digital, 3/2 (L,C,R,l,r) + LFE ch, ~384 kbps | |
Аудио 2: 48 kHz, DTS-HD MA, 5.1, (C L R Ls Rs) + LFE ch, ~1947 Kbps (DTS Core: 5.1 / 48 kHz / 1509 kbps / 16-bit) | |-

MediaInfo

Код:
General
Unique ID                   : 128274762179105072096169297397666384189 (0x6080D210276614A39AC1B61F34CD893D)
Complete name               : E:\Kino\HD\Rams (2020) BDRemux 1080p.mkv
Format                      : Matroska
Format version              : Version 4
File size                   : 19.1 GiB
Duration                    : 1 h 58 min
Overall bit rate mode       : Variable
Overall bit rate            : 23.1 Mb/s
Movie name                  : Бараны | Rams (2020) BDRemux 1080p
Encoded date                : UTC 2021-02-14 12:24:36
Writing application         : mkvmerge v51.0.0 ('I Wish') 64-bit
Writing library             : libebml v1.4.0 + libmatroska v1.6.2
Cover                       : Yes
Attachments                 : cover.png
Video
ID                          : 1
Format                      : AVC
Format/Info                 : Advanced Video Codec
Format profile              : High@L4.1
Format settings             : CABAC / 4 Ref Frames
Format settings, CABAC      : Yes
Format settings, Reference  : 4 frames
Codec ID                    : V_MPEG4/ISO/AVC
Duration                    : 1 h 58 min
Bit rate mode               : Variable
Bit rate                    : 20.7 Mb/s
Maximum bit rate            : 38.0 Mb/s
Width                       : 1 920 pixels
Height                      : 1 080 pixels
Display aspect ratio        : 16:9
Frame rate mode             : Constant
Frame rate                  : 24.000 FPS
Color space                 : YUV
Chroma subsampling          : 4:2:0
Bit depth                   : 8 bits
Scan type                   : Progressive
Bits/(Pixel*Frame)          : 0.416
Stream size                 : 17.2 GiB (90%)
Title                       : Rams (2020) BDRemux 1080p
Language                    : English
Default                     : Yes
Forced                      : No
Audio #1
ID                          : 2
Format                      : AC-3
Format/Info                 : Audio Coding 3
Commercial name             : Dolby Digital
Codec ID                    : A_AC3
Duration                    : 1 h 58 min
Bit rate mode               : Constant
Bit rate                    : 384 kb/s
Channel(s)                  : 6 channels
Channel layout              : L R C LFE Ls Rs
Sampling rate               : 48.0 kHz
Frame rate                  : 31.250 FPS (1536 SPF)
Compression mode            : Lossy
Stream size                 : 326 MiB (2%)
Title                       : Русский | Дублированный | iTunes
Language                    : Russian
Service kind                : Complete Main
Default                     : Yes
Forced                      : Yes
Audio #2
ID                          : 3
Format                      : DTS XLL
Format/Info                 : Digital Theater Systems
Commercial name             : DTS-HD Master Audio
Codec ID                    : A_DTS
Duration                    : 1 h 58 min
Bit rate mode               : Variable
Bit rate                    : 1 947 kb/s
Channel(s)                  : 6 channels
Channel layout              : C L R Ls Rs LFE
Sampling rate               : 48.0 kHz
Frame rate                  : 93.750 FPS (512 SPF)
Bit depth                   : 16 bits
Compression mode            : Lossless
Stream size                 : 1.62 GiB (8%)
Title                       : Английский | DTS-HD Master Audio
Language                    : English
Default                     : No
Forced                      : No
Text #1
ID                          : 4
Format                      : UTF-8
Codec ID                    : S_TEXT/UTF8
Codec ID/Info               : UTF-8 Plain Text
Duration                    : 1 h 50 min
Bit rate                    : 0 b/s
Count of elements           : 3
Stream size                 : 30.0 Bytes (0%)
Title                       : Русские (Forced)
Language                    : Russian
Default                     : No
Forced                      : No
Text #2
ID                          : 5
Format                      : UTF-8
Codec ID                    : S_TEXT/UTF8
Codec ID/Info               : UTF-8 Plain Text
Duration                    : 1 h 52 min
Bit rate                    : 45 b/s
Count of elements           : 1363
Stream size                 : 37.2 KiB (0%)
Title                       : Английские (Forced)
Language                    : English
Default                     : No
Forced                      : No
Menu
00:00:00.000                : en:Neighbours
00:06:42.708                : en:Show
00:14:10.374                : en:Suspicion
00:18:25.541                : en:Target Practice
00:23:44.541                : en:OJD
00:27:41.125                : en:Reno
00:32:54.332                : en:Destruction
00:38:35.083                : en:Compensation
00:42:06.416                : en:Pull the Wool
00:47:04.000                : en:Christmas
00:51:27.291                : en:Late Visit
00:56:56.458                : en:Romance
01:01:55.874                : en:Moving On
01:07:09.375                : en:Responsible
01:12:37.249                : en:Drunken Load
01:16:48.166                : en:Heritage
01:22:32.041                : en:Backburn
01:26:54.874                : en:All Good
01:31:53.000                : en:Discovery
01:37:16.750                : en:Inspection
01:41:46.041                : en:Droving
01:52:02.332                : en:Spring
01:55:14.332                : en:End Credits

Скриншоты


_________________
Мои раздачи
[Торрент-статистика]
[Профиль]  [ЛС] 
Показать сообщения:    
Ответить на тему

Текущее время: Сегодня 16:46

Часовой пояс: GMT + 4



Вы не можете начинать темы
Вы не можете отвечать на сообщения
Вы не можете редактировать свои сообщения
Вы не можете удалять свои сообщения
Вы не можете голосовать в опросах
Вы не можете прикреплять файлы к сообщениям
Вы не можете скачивать файлы