Эспен в королевстве троллей / Askeladden - I Dovregubbens hall (Миккел Бренне Сандемус / Mikkel Brænne Sandemose) [2017, Норвегия, Приключения, семейный, BDRemux 1080p] Dub (iTunes) + Original Nor

Ответить на тему
 
Автор
Сообщение

Волк ®

Пол:

Стаж: 9 лет 3 месяца

Сообщений: 888

Репутация: 333 [+] [-]

Откуда: Армения

Пост 22-Фев-2021 00:40

[Цитировать] 

Эспен в королевстве троллей / Askeladden - I Dovregubbens hall
«Something big is coming»
- Страна: Норвегия
Студия: Maipo Film, Sirena Film, Subotica Entertainment
Жанр: Приключения, семейный
Год выпуска: 2017
Продолжительность: 01:44:20
Перевод: Профессиональный (дублированный) | iTunes
Субтитры: Нет
Оригинальная аудиодорожка: Английский-Режиссер: Миккел Бренне Сандемус / Mikkel Brænne Sandemose-В ролях: Вебьёрн Энгер, Элли Харбоа, Мэдс Сьёгард Петтерсен, Элиас Хольмен Сёренсен, Эллан Хайд, Гискен Арманд, Гард Б. Эйдсвольд, Синнове Макоди Лунд, Торбьорн Харр, Ида Урсин-Хольм-Описание: Сюжет картины посвящен истории сына простого фермера по имени Эспен. Вместе со своими братьями Эспен отправляется на поиски принцессы Кристин (Элли Харбоа), которую похитил мерзкий тролль, известный как Король Горы. Если Эспен с братьями найдет и спасет принцессу, король наградит его кучей денег, что поможет спасти семью от разорения.-IMDB | КиноПоиск | Сэмпл-Премьера в Росcии: 7 декабря 2017, «Capella Film»
Премьера в мире: 29 сентября 2017
Ре-релиз (РФ): 21 ноября 2019, «Capella Film»
Цифровой релиз: 25 декабря 2017, «Capella Film»-Тип релиза: BDRemux 1080p
Контейнер: MKV
Видео: MPEG-4 AVC, 1920x1080, 24.0 Mbit/s, 24.000 fps, BT.709
Аудио 1: 48 kHz, AC3 Dolby Digital, 3/2 (L,C,R,l,r) + LFE ch, ~384 kbps | | RUS
Аудио 2: 48 kHz, DTS-HD MA, 5.1, (C L R Ls Rs) + LFE ch, ~3781 Kbps (DTS Core: 5.1 / 48 kHz / 1509 kbps / 24-bit)
| | NOR-

MediaInfo

Код:
General
Unique ID                   : 315961407224135225105354835196235191474 (0xEDB3F41B7BD8CC8F2CA14A941B0B94B2)
Complete name               : E:\Kino\HD\Askeladden  I Dovregubbens hall (2017) BDRemux 1080p.mkv
Format                      : Matroska
Format version              : Version 4
File size                   : 20.5 GiB
Duration                    : 1 h 44 min
Overall bit rate mode       : Variable
Overall bit rate            : 28.2 Mb/s
Movie name                  : Эспен в королевстве троллей | Askeladden - I Dovregubbens hall
Encoded date                : UTC 2021-02-18 17:56:29
Writing application         : mkvmerge v51.0.0 ('I Wish') 64-bit
Writing library             : libebml v1.4.0 + libmatroska v1.6.2
Cover                       : Yes
Attachments                 : cover.png
Video
ID                          : 1
Format                      : AVC
Format/Info                 : Advanced Video Codec
Format profile              : High@L4.1
Format settings             : CABAC / 4 Ref Frames
Format settings, CABAC      : Yes
Format settings, Reference  : 4 frames
Codec ID                    : V_MPEG4/ISO/AVC
Duration                    : 1 h 44 min
Bit rate mode               : Variable
Bit rate                    : 24.0 Mb/s
Maximum bit rate            : 35.0 Mb/s
Width                       : 1 920 pixels
Height                      : 1 080 pixels
Display aspect ratio        : 16:9
Frame rate mode             : Constant
Frame rate                  : 24.000 FPS
Standard                    : NTSC
Color space                 : YUV
Chroma subsampling          : 4:2:0
Bit depth                   : 8 bits
Scan type                   : Progressive
Bits/(Pixel*Frame)          : 0.482
Stream size                 : 17.5 GiB (85%)
Title                       : Askeladden - I Dovregubbens hall (2017) BDRemux 1080p
Language                    : Norwegian
Default                     : Yes
Forced                      : No
Color range                 : Limited
Color primaries             : BT.709
Transfer characteristics    : BT.709
Matrix coefficients         : BT.709
Audio #1
ID                          : 2
Format                      : AC-3
Format/Info                 : Audio Coding 3
Commercial name             : Dolby Digital
Codec ID                    : A_AC3
Duration                    : 1 h 44 min
Bit rate mode               : Constant
Bit rate                    : 384 kb/s
Channel(s)                  : 6 channels
Channel layout              : L R C LFE Ls Rs
Sampling rate               : 48.0 kHz
Frame rate                  : 31.250 FPS (1536 SPF)
Compression mode            : Lossy
Stream size                 : 287 MiB (1%)
Title                       : Профессиональный (дублированный) iTunes
Language                    : Russian
Service kind                : Complete Main
Default                     : Yes
Forced                      : Yes
Audio #2
ID                          : 3
Format                      : DTS XLL
Format/Info                 : Digital Theater Systems
Commercial name             : DTS-HD Master Audio
Codec ID                    : A_DTS
Duration                    : 1 h 44 min
Bit rate mode               : Variable
Bit rate                    : 3 781 kb/s
Channel(s)                  : 6 channels
Channel layout              : C L R Ls Rs LFE
Sampling rate               : 48.0 kHz
Frame rate                  : 93.750 FPS (512 SPF)
Bit depth                   : 24 bits
Compression mode            : Lossless
Stream size                 : 2.76 GiB (13%)
Title                       : Норвежский | DTS | HD Master Audio
Language                    : Norwegian
Default                     : No
Forced                      : No
Menu
00:00:00.000                : en:00:00:00.000
00:09:59.542                : en:00:09:59.542
00:19:59.583                : en:00:19:59.583
00:29:59.583                : en:00:29:59.583
00:39:59.583                : en:00:39:59.583
00:49:59.542                : en:00:49:59.542
00:59:59.625                : en:00:59:59.625
01:09:59.875                : en:01:09:59.875
01:19:59.667                : en:01:19:59.667
01:29:59.583                : en:01:29:59.583
01:39:59.583                : en:01:39:59.583

Скриншоты


_________________
Мои раздачи
[Торрент-статистика]
[Профиль]  [ЛС] 
Показать сообщения:    
Ответить на тему

Текущее время: Сегодня 17:10

Часовой пояс: GMT + 4



Вы не можете начинать темы
Вы не можете отвечать на сообщения
Вы не можете редактировать свои сообщения
Вы не можете удалять свои сообщения
Вы не можете голосовать в опросах
Вы не можете прикреплять файлы к сообщениям
Вы не можете скачивать файлы