Суперстранные дела / Dead Dicks (Крис Бавота / Chris Bavota, Ли Пола Спрингер / Lee Paula Springer) [2019, Канада, Ужасы, фантастика, комедия, BDRemux 1080p] Dub (iTunes) + Sub Rus Eng + Original Eng

Ответить на тему
 
Автор
Сообщение

Волк ®

Пол:

Стаж: 9 лет 3 месяца

Сообщений: 888

Репутация: 333 [+] [-]

Откуда: Армения

Пост 22-Фев-2021 00:39

[Цитировать] 

Суперстранные дела / Dead Dicks
«Родись. Умри. Повтори»
- Страна: Канада
Студия: Postal Code Films, Red Clay Pictures
Жанр: Ужасы, фантастика, комедия
Год выпуска: 2019
Продолжительность: 01:22:42
Перевод: Профессиональный (дублированный) | iTunes
Субтитры: Русские (Full), Английские (Full) SDH
Оригинальная аудиодорожка: Английский-Режиссер: Крис Бавота / Chris Bavota, Ли Пола Спрингер / Lee Paula Springer-В ролях: Хестон Хорвин, Джиллиан Харрис, Мэтт Кийес, Кристина Сандев, Лейда Алейли, Дейв Кэмпбелл-Описание: Старший брат Бекки, начинающего врача, психически нездоров, поэтому когда девушка получает от него серию панических сообщений, то незамедлительно мчит на помощь. В полуразрушенной квартире ее встречает Ричи — вместе с грудой своих же трупов-двойников: при успешных попытках самоубийства Ричи почему-то каждый раз выживает, оставляя в доме кучу мертвых доппельгангеров. Как и почему происходит перерождение, героям предстоит узнать самостоятельно.-IMDB | КиноПоиск | Сэмпл- -Премьера в мире: 25 июля 2019
Цифровой релиз: 15 ноября 2020, «Кинологистика»-Тип релиза: BDRemux 1080p | исх Dead.Dicks.2019.MULTi.COMPLETE.BLURAY-NEWHAM |
Контейнер: MKV
Видео: MPEG-4 AVC, 1920x1080, 25.0 Mbit/s, 23.976 fps, BT.709
Аудио 1: 48 kHz, AC3 Dolby Digital, 3/2 (L,C,R,l,r) + LFE ch, ~384 kbps | |
Аудио 2: 48 kHz, DTS-HD MA, 5.1, (C L R Ls Rs) + LFE ch, ~1968 Kbps (DTS Core: 5.1 / 48 kHz / 1509 kbps / 16-bit) | |-

MediaInfo

Код:
General
Unique ID                   : 62677710905326205835095447816759634278 (0x2F2749BC30F95050A52799A18BD76966)
Complete name               : E:\Kino\HD\Dead Dicks (2019) BDRemux 1080p.mkv
Format                      : Matroska
Format version              : Version 4
File size                   : 15.8 GiB
Duration                    : 1 h 22 min
Overall bit rate mode       : Variable
Overall bit rate            : 27.4 Mb/s
Movie name                  : Суперстранные дела | Dead Dicks | 2019 | BDRemux 1080p
Encoded date                : UTC 2021-02-20 16:28:31
Writing application         : mkvmerge v51.0.0 ('I Wish') 64-bit
Writing library             : libebml v1.4.0 + libmatroska v1.6.2
Cover                       : Yes
Attachments                 : cover.png
Video
ID                          : 1
Format                      : AVC
Format/Info                 : Advanced Video Codec
Format profile              : High@L4.1
Format settings             : CABAC / 4 Ref Frames
Format settings, CABAC      : Yes
Format settings, Reference  : 4 frames
Codec ID                    : V_MPEG4/ISO/AVC
Duration                    : 1 h 22 min
Bit rate mode               : Variable
Bit rate                    : 25.0 Mb/s
Maximum bit rate            : 35.0 Mb/s
Width                       : 1 920 pixels
Height                      : 1 080 pixels
Display aspect ratio        : 16:9
Frame rate mode             : Constant
Frame rate                  : 23.976 (24000/1001) FPS
Standard                    : Component
Color space                 : YUV
Chroma subsampling          : 4:2:0
Bit depth                   : 8 bits
Scan type                   : Progressive
Bits/(Pixel*Frame)          : 0.503
Stream size                 : 14.4 GiB (91%)
Title                       : Суперстранные дела | Dead Dicks (2019) BDRemux 1080p
Language                    : English
Default                     : Yes
Forced                      : No
Color range                 : Limited
Color primaries             : BT.709
Transfer characteristics    : BT.709
Matrix coefficients         : BT.709
Audio #1
ID                          : 2
Format                      : AC-3
Format/Info                 : Audio Coding 3
Commercial name             : Dolby Digital
Codec ID                    : A_AC3
Duration                    : 1 h 22 min
Bit rate mode               : Constant
Bit rate                    : 384 kb/s
Channel(s)                  : 6 channels
Channel layout              : L R C LFE Ls Rs
Sampling rate               : 48.0 kHz
Frame rate                  : 31.250 FPS (1536 SPF)
Compression mode            : Lossy
Stream size                 : 227 MiB (1%)
Title                       : Профессиональный (дублированный) iTunes
Language                    : Russian
Service kind                : Complete Main
Default                     : Yes
Forced                      : Yes
Audio #2
ID                          : 3
Format                      : DTS XLL
Format/Info                 : Digital Theater Systems
Commercial name             : DTS-HD Master Audio
Codec ID                    : A_DTS
Duration                    : 1 h 22 min
Bit rate mode               : Variable
Bit rate                    : 1 968 kb/s
Channel(s)                  : 6 channels
Channel layout              : C L R Ls Rs LFE
Sampling rate               : 48.0 kHz
Frame rate                  : 93.750 FPS (512 SPF)
Bit depth                   : 16 bits
Compression mode            : Lossless
Stream size                 : 1.14 GiB (7%)
Title                       : Английский | DTS | HD Master Audio
Language                    : English
Default                     : No
Forced                      : No
Text #1
ID                          : 4
Format                      : UTF-8
Codec ID                    : S_TEXT/UTF8
Codec ID/Info               : UTF-8 Plain Text
Duration                    : 1 h 13 min
Bit rate                    : 83 b/s
Count of elements           : 980
Stream size                 : 44.9 KiB (0%)
Title                       : Русские (Full)
Language                    : Russian
Default                     : No
Forced                      : No
Text #2
ID                          : 5
Format                      : UTF-8
Codec ID                    : S_TEXT/UTF8
Codec ID/Info               : UTF-8 Plain Text
Duration                    : 1 h 11 min
Bit rate                    : 52 b/s
Count of elements           : 982
Stream size                 : 27.4 KiB (0%)
Title                       : Английские (Full)
Language                    : English
Default                     : No
Forced                      : No
Text #3
ID                          : 6
Format                      : UTF-8
Codec ID                    : S_TEXT/UTF8
Codec ID/Info               : UTF-8 Plain Text
Duration                    : 1 h 16 min
Bit rate                    : 55 b/s
Count of elements           : 1147
Stream size                 : 31.0 KiB (0%)
Title                       : Английские (SDH)
Language                    : English
Default                     : No
Forced                      : No
Menu
00:00:00.000                : de:Глава 01
00:09:37.410                : de:Глава 02
00:23:09.555                : de:Глава 03
00:28:26.288                : de:Глава 04
00:40:02.233                : de:Глава 05
00:50:55.094                : de:Глава 06
01:02:26.785                : de:Глава 07
01:10:05.159                : de:Глава 08

Скриншоты


_________________
Мои раздачи
[Торрент-статистика]
[Профиль]  [ЛС] 
Показать сообщения:    
Ответить на тему

Текущее время: Сегодня 01:51

Часовой пояс: GMT + 4



Вы не можете начинать темы
Вы не можете отвечать на сообщения
Вы не можете редактировать свои сообщения
Вы не можете удалять свои сообщения
Вы не можете голосовать в опросах
Вы не можете прикреплять файлы к сообщениям
Вы не можете скачивать файлы