Мы можем стать героями / We Can Be Heroes (Роберт Родригес / Robert Rodriguez) [2020, США, Фэнтези, боевик, семейный, WEB-DL 1080p] Dub (Пифагор) + MVO (HDRezka Studio) + MVO (NewStudio) + Sub Rus Eng + Original Eng

Ответить на тему
 
Автор
Сообщение

Волк ®

Пол:

Стаж: 9 лет 3 месяца

Сообщений: 888

Репутация: 333 [+] [-]

Откуда: Армения

Пост 21-Фев-2021 23:41

[Цитировать] 

Мы можем стать героями / We Can Be Heroes
«Power comes in all sizes»
- Страна: США
Студия: Quick Draw Productions, Troublemaker Studios
Жанр: Фэнтези, боевик, семейный
Год выпуска: 2020
Продолжительность: 01:40:41
Перевод 1: Профессиональный (дублированный) Пифагор | Netflix
Перевод 2: Профессиональный (многоголосый закадровый) HDRezka Studio
Перевод 3: Профессиональный (многоголосый закадровый) NewStudio
Субтитры: Русские (Forced, full) Английские
Оригинальная аудиодорожка: Английский-Режиссер: Роберт Родригес / Robert Rodriguez-В ролях: Педро Паскаль, Приянка Чопра Джонас, Кристиан Слэйтер, Бойд Холбрук, Тэйлор Дули, Кристофер Макдональд, Сон Ган, Хейли Рейнхарт, Акира Акбар-Описание: Группа детей пытается спасти своих родителей-супергероев, похищенных инопланетянами. Для этого они сбегают из правительственного убежища.-IMDB | КиноПоиск | Сэмпл-Премьера в мире 25 декабря 2020
Цифровой релиз 25 декабря 2020, «Netflix»-Тип релиза: WEB-DL 1080p
Контейнер: MKV
Видео: MPEG-4 AVC, 1920x1080, 6810 Kbit/s, 23.976 fps
Аудио 1: 48 kHz, E-AC3 Dolby Digital+, 3/2 (L, C, R, l, r) + LFE ch, ~640 Kbps | | Пифагор
Аудио 2: 48 kHz, AC3 Dolby Digital, 3/2 (L,C,R,l,r) + LFE ch, ~640 kbps | | HDRezka Studio
Аудио 3: 48 kHz, AC3 Dolby Digital, 3/2 (L,C,R,l,r) + LFE ch, ~640 kbps | | NewStudio
Аудио 4: 48 kHz, E-AC3 Dolby Digital+, 3/2 (L, C, R, l, r) + LFE ch, ~640 Kbps | | Original-

MediaInfo

Код:
General
Unique ID                   : 261728363153128066472094648587232202892 (0xC4E70C97A9F1C079FA6470C36A17D08C)
Complete name               : E:\Kino\HD\We Can Be Heroes (2020) WEB-DL 1080p.mkv
Format                      : Matroska
Format version              : Version 4
File size                   : 6.37 GiB
Duration                    : 1 h 40 min
Overall bit rate mode       : Variable
Overall bit rate            : 9 051 kb/s
Movie name                  : Мы можем стать героями | We Can Be Heroes | 2020 | WEB-DL 1080p
Encoded date                : UTC 2021-02-16 17:15:20
Writing application         : mkvmerge v51.0.0 ('I Wish') 64-bit
Writing library             : libebml v1.4.0 + libmatroska v1.6.2
Cover                       : Yes
Attachments                 : cover.png
Video
ID                          : 1
Format                      : AVC
Format/Info                 : Advanced Video Codec
Format profile              : Main@L4
Format settings             : CABAC / 3 Ref Frames
Format settings, CABAC      : Yes
Format settings, Reference  : 3 frames
Codec ID                    : V_MPEG4/ISO/AVC
Duration                    : 1 h 40 min
Bit rate mode               : Variable
Bit rate                    : 6 810 kb/s
Maximum bit rate            : 10.2 Mb/s
Width                       : 1 920 pixels
Height                      : 1 080 pixels
Display aspect ratio        : 16:9
Frame rate mode             : Constant
Frame rate                  : 23.976 (24000/1001) FPS
Color space                 : YUV
Chroma subsampling          : 4:2:0
Bit depth                   : 8 bits
Scan type                   : Progressive
Bits/(Pixel*Frame)          : 0.137
Stream size                 : 4.56 GiB (72%)
Title                       : Мы можем стать героями | We Can Be Heroes | WEB-DL 1080p
Writing library             : x264 core 148 r2722 1b0121b
Encoding settings           : cabac=1 / ref=3 / deblock=1:0:0 / analyse=0x1:0x111 / me=umh / subme=10 / psy=1 / psy_rd=1.00:0.00 / mixed_ref=1 / me_range=24 / chroma_me=1 / trellis=2 / 8x8dct=0 / cqm=0 / deadzone=21,11 / fast_pskip=1 / chroma_qp_offset=-2 / threads=6 / lookahead_threads=1 / sliced_threads=0 / nr=0 / decimate=1 / interlaced=0 / bluray_compat=0 / stitchable=1 / constrained_intra=0 / bframes=2 / b_pyramid=0 / b_adapt=2 / b_bias=0 / direct=3 / weightb=1 / open_gop=0 / weightp=2 / keyint=250 / keyint_min=23 / scenecut=0 / intra_refresh=0 / rc_lookahead=48 / rc=2pass / mbtree=1 / bitrate=6810 / ratetol=1.0 / qcomp=0.50 / qpmin=6 / qpmax=51 / qpstep=4 / cplxblur=20.0 / qblur=0.5 / vbv_maxrate=10215 / vbv_bufsize=13620 / nal_hrd=vbr / filler=0 / ip_ratio=1.40 / aq=1:1.00
Language                    : English
Default                     : Yes
Forced                      : No
Audio #1
ID                          : 2
Format                      : E-AC-3
Format/Info                 : Enhanced AC-3
Commercial name             : Dolby Digital Plus
Codec ID                    : A_EAC3
Duration                    : 1 h 40 min
Bit rate mode               : Constant
Bit rate                    : 640 kb/s
Channel(s)                  : 6 channels
Channel layout              : L R C LFE Ls Rs
Sampling rate               : 48.0 kHz
Frame rate                  : 31.250 FPS (1536 SPF)
Compression mode            : Lossy
Stream size                 : 461 MiB (7%)
Title                       : Дублированный | Пифагор по заказу | Netflix
Language                    : Russian
Service kind                : Complete Main
Default                     : Yes
Forced                      : Yes
Audio #2
ID                          : 3
Format                      : AC-3
Format/Info                 : Audio Coding 3
Commercial name             : Dolby Digital
Codec ID                    : A_AC3
Duration                    : 1 h 40 min
Bit rate mode               : Constant
Bit rate                    : 640 kb/s
Channel(s)                  : 6 channels
Channel layout              : L R C LFE Ls Rs
Sampling rate               : 48.0 kHz
Frame rate                  : 31.250 FPS (1536 SPF)
Compression mode            : Lossy
Stream size                 : 461 MiB (7%)
Title                       : Профессиональный (многоголосый закадровый) HDRezka Studio
Language                    : Russian
Service kind                : Complete Main
Default                     : No
Forced                      : No
Audio #3
ID                          : 4
Format                      : AC-3
Format/Info                 : Audio Coding 3
Commercial name             : Dolby Digital
Codec ID                    : A_AC3
Duration                    : 1 h 40 min
Bit rate mode               : Constant
Bit rate                    : 640 kb/s
Channel(s)                  : 6 channels
Channel layout              : L R C LFE Ls Rs
Sampling rate               : 48.0 kHz
Frame rate                  : 31.250 FPS (1536 SPF)
Compression mode            : Lossy
Stream size                 : 461 MiB (7%)
Title                       : Профессиональный (многоголосый закадровый) NewStudio
Language                    : Russian
Service kind                : Complete Main
Default                     : No
Forced                      : No
Audio #4
ID                          : 5
Format                      : E-AC-3
Format/Info                 : Enhanced AC-3
Commercial name             : Dolby Digital Plus
Codec ID                    : A_EAC3
Duration                    : 1 h 40 min
Bit rate mode               : Constant
Bit rate                    : 640 kb/s
Channel(s)                  : 6 channels
Channel layout              : L R C LFE Ls Rs
Sampling rate               : 48.0 kHz
Frame rate                  : 31.250 FPS (1536 SPF)
Compression mode            : Lossy
Stream size                 : 461 MiB (7%)
Title                       : Английский | English
Language                    : English
Service kind                : Complete Main
Default                     : No
Forced                      : No
Text #1
ID                          : 6
Format                      : UTF-8
Codec ID                    : S_TEXT/UTF8
Codec ID/Info               : UTF-8 Plain Text
Duration                    : 1 h 34 min
Bit rate                    : 2 b/s
Count of elements           : 42
Stream size                 : 1.39 KiB (0%)
Title                       : Русские (Forced)
Language                    : Russian
Default                     : No
Forced                      : No
Text #2
ID                          : 7
Format                      : UTF-8
Codec ID                    : S_TEXT/UTF8
Codec ID/Info               : UTF-8 Plain Text
Duration                    : 1 h 36 min
Bit rate                    : 83 b/s
Count of elements           : 1378
Stream size                 : 58.7 KiB (0%)
Title                       : Русские (Full)
Language                    : Russian
Default                     : No
Forced                      : No
Text #3
ID                          : 8
Format                      : UTF-8
Codec ID                    : S_TEXT/UTF8
Codec ID/Info               : UTF-8 Plain Text
Duration                    : 1 h 30 min
Bit rate                    : 65 b/s
Count of elements           : 1645
Stream size                 : 43.7 KiB (0%)
Title                       : Английские | English | CC |
Language                    : English
Default                     : No
Forced                      : No

Скриншоты


_________________
Мои раздачи
[Торрент-статистика]
[Профиль]  [ЛС] 
Показать сообщения:    
Ответить на тему

Текущее время: Сегодня 02:15

Часовой пояс: GMT + 4



Вы не можете начинать темы
Вы не можете отвечать на сообщения
Вы не можете редактировать свои сообщения
Вы не можете удалять свои сообщения
Вы не можете голосовать в опросах
Вы не можете прикреплять файлы к сообщениям
Вы не можете скачивать файлы