«Аджика» экстремальный клуб (Сергей Целиков) [2019 г., Драма, короткометражный, HDRip-AVC]

Ответить на тему
 
Автор
Сообщение

SaluteMe2 ®

Стаж: 12 дней

Сообщений: 4

Репутация: 3 [+] [-]

Пост 19-Фев-2021 13:29

[Цитировать] 

«Аджика» экстремальный клуб
Год выпуска: 2019
Страна: Россия
Жанр: Драма, короткометражный
Продолжительность: 00:20:20
Режиссер: Сергей Целиков
В ролях: Дмитрий Трусов, Александр Городиский, Александр Пурис, Иван Орлов, Сергей Базаров, Юрий Гумиров, Сергей Иванюк
Описание:
Группа юных экстремалов мечтает о славе. Для этого они каждый день снимают на видео опасные трюки и выкладывают их в сеть. Все меняется, когда на пороге тренировочной базы экстрим-клуба «Аджика» появляется странный тип. Он говорит, что знает быстрый способ прославиться и обещает спонсорский контракт и миллионы просмотров на «Ютуб». Для этого от парней требуется совсем немного — добавить в свои акции нотку оппозиционности.
Доп. информация:
Оператор: Дмитрий Миненков
Художник: Ольга Бондарева
Звукорежиссер: Антон Левкин
Тип релиза: HDRip-AVC
Контейнер: MKV
Видео кодек: H264 (AVC)
Аудио кодек: AC3 (Dolby Digital)
Видео: 720x406, 25 fps, 2260 kbps
Аудио: 48 kHz, 2.0, 224 kbps
Субтитры: Русские, английские

MediaInfo

General
Unique ID : 272512266098177517324326208332547069562 (0xCD03F40EB04827DFD5952ABE1CED967A)
Complete name : C:\«Аджика» экстремальный клуб (2019).mkv
Format : Matroska
Format version : Version 4
File size : 361 MiB
Duration : 20 min 20 s
Overall bit rate : 2 484 kb/s
Writing application : Lavf58.45.100
Writing library : Lavf58.45.100
ErrorDetectionType : Per level 1
Video
ID : 1
Format : AVC
Format/Info : Advanced Video Codec
Format profile : Main@L4.1
Format settings : CABAC / 16 Ref Frames
Format settings, CABAC : Yes
Format settings, Reference frames : 16 frames
Codec ID : V_MPEG4/ISO/AVC
Duration : 20 min 20 s
Bit rate : 2 260 kb/s
Width : 720 pixels
Height : 406 pixels
Display aspect ratio : 16:9
Frame rate mode : Variable
Color space : YUV
Chroma subsampling : 4:2:0
Bit depth : 8 bits
Scan type : Progressive
Stream size : 322 MiB (89%)
Writing library : x264 core 161 r3018 db0d417
Encoding settings : cabac=1 / ref=16 / deblock=1:-1:-1 / analyse=0x1:0x131 / me=umh / subme=10 / psy=1 / psy_rd=1.00:0.15 / mixed_ref=1 / me_range=24 / chroma_me=1 / trellis=2 / 8x8dct=0 / cqm=0 / deadzone=21,11 / fast_pskip=1 / chroma_qp_offset=-3 / threads=12 / lookahead_threads=2 / sliced_threads=0 / nr=0 / decimate=1 / interlaced=0 / bluray_compat=0 / constrained_intra=0 / bframes=8 / b_pyramid=2 / b_adapt=2 / b_bias=0 / direct=3 / weightb=1 / open_gop=0 / weightp=2 / keyint=250 / keyint_min=25 / scenecut=40 / intra_refresh=0 / rc_lookahead=60 / rc=2pass / mbtree=1 / bitrate=2260 / ratetol=1.0 / qcomp=0.60 / qpmin=0 / qpmax=69 / qpstep=4 / cplxblur=20.0 / qblur=0.5 / ip_ratio=1.40 / aq=1:1.00
Language : Russian
Default : Yes
Forced : No
Audio
ID : 2
Format : AC-3
Format/Info : Audio Coding 3
Commercial name : Dolby Digital
Codec ID : A_AC3
Duration : 20 min 20 s
Bit rate mode : Constant
Bit rate : 224 kb/s
Channel(s) : 2 channels
Channel layout : L R
Sampling rate : 48.0 kHz
Frame rate : 31.250 FPS (1536 SPF)
Bit depth : 32 bits
Compression mode : Lossy
Stream size : 32.6 MiB (9%)
Writing library : Lavc58.91.100 ac3
Language : Russian
Service kind : Complete Main
Default : Yes
Forced : No
Text #1
ID : 3
Format : ASS
Codec ID : S_TEXT/ASS
Codec ID/Info : Advanced Sub Station Alpha
Duration : 18 min 48 s
Compression mode : Lossless
Writing library : Lavc58.91.100 ssa
Language : Russian
Default : No
Forced : No
Text #2
ID : 4
Format : ASS
Codec ID : S_TEXT/ASS
Codec ID/Info : Advanced Sub Station Alpha
Duration : 19 min 15 s
Compression mode : Lossless
Writing library : Lavc58.91.100 ssa
Language : English
Default : No
Forced : No

Скриншоты


[Торрент-статистика]
[Профиль]  [ЛС] 
Показать сообщения:    
Ответить на тему

Текущее время: Сегодня 09:33

Часовой пояс: GMT + 4



Вы не можете начинать темы
Вы не можете отвечать на сообщения
Вы не можете редактировать свои сообщения
Вы не можете удалять свои сообщения
Вы не можете голосовать в опросах
Вы не можете прикреплять файлы к сообщениям
Вы не можете скачивать файлы