Искаженный / Контроль / Distorted (Роб В. Кинг / Rob W. King) [2018, Канада, Триллер, криминал, детектив, BDRemux 1080p] MVO (Русский | iTunes) + MVO (Украинский | iTunes) + Sub Eng + Original Eng

Ответить на тему
 
Автор
Сообщение

Волк ®

Пол:

Стаж: 9 лет 3 месяца

Сообщений: 888

Репутация: 333 [+] [-]

Откуда: Армения

Пост 31-Янв-2021 17:36

[Цитировать] 

Искаженный / Контроль / Distorted«Don't fear the lies. Fear the truth»- Страна: Канада
Студия: Bridgegate Pictures, Minds Eye Entertainment
Жанр: Триллер, криминал, детектив
Год выпуска: 2018
Продолжительность: 01:26:19
Перевод 1: Профессиональный (многоголосый закадровый) Русский | iTunes
Перевод 2: Профессиональный (многоголосый закадровый) Украинский | iTunes
Субтитры: Английские
Оригинальная аудиодорожка: Английский-Режиссер: Роб В. Кинг / Rob W. King-В ролях: Кристина Риччи, Брендан Флетчер, Виселос Реон Шеннон, Джон Кьюсак, Николь Энтони, Оливер Райс, Гиги Джекман, Бенжамин ДеУолт, Майя Милькович, Скотт Олинек-Описание: Лорен и ее муж Рассел переезжают в Пинакл, элегантный и современный жилой комплекс со всеми удобствами, включая супертехнологичную систему безопасности. Вскоре героиня замечает, что с другими жителями комплекса творится что-то неладное, и нанимает журналиста Вернона из отдела расследований. Вернон является сторонником теории заговора и считает, что Пинакл вовсе не жилой комплекс, а корпоративный эксперимент в области синтетической телепатии, а все жители - лишь подопытные морские свинки в глобальном заговоре...-IMDB | КиноПоиск | Сэмпл-Премьера в Росcии 14 января 2021, «UMS Film»
Премьера в мире 31 мая 2018-Тип релиза: BDRemux 1080p
Контейнер: MKV
Видео: MPEG-4 AVC, 1920x1080, 23.976 fps, 25.5 Mbit/s, BT.709
Аудио 1: 48 kHz, AC3 Dolby Digital, 3/2 (L, C, R, l, r) + LFE ch, ~384 kbps |
Аудио 2: 48 kHz, AC3 Dolby Digital, 3/2 (L, C, R, l, r) + LFE ch, ~384 kbps |
Аудио 3: 48 kHz, DTS-HD MA, 3/2 (L, C, R, l, r) + LFE ch, ~2357 kbps |
-

MediaInfo

Код:
General
Unique ID                   : 207597211449741500355310443816055761489 (0x9C2DC4C2546195AC828AC7941FE46A51)
Complete name               : E:\Kino\HD\Distorted (2018) BDRemux 1080p.mkv
Format                      : Matroska
Format version              : Version 4
File size                   : 17.3 GiB
Duration                    : 1 h 26 min
Overall bit rate mode       : Variable
Overall bit rate            : 28.7 Mb/s
Movie name                  : Контроль | Искаженный | Distorted (2018) BDRemux 1080p
Encoded date                : UTC 2021-01-31 11:36:02
Writing application         : mkvmerge v51.0.0 ('I Wish') 64-bit
Writing library             : libebml v1.4.0 + libmatroska v1.6.2
Cover                       : Yes
Attachments                 : cover.jpg
Video
ID                          : 1
Format                      : AVC
Format/Info                 : Advanced Video Codec
Format profile              : High@L4.1
Format settings             : CABAC / 4 Ref Frames
Format settings, CABAC      : Yes
Format settings, Reference  : 4 frames
Codec ID                    : V_MPEG4/ISO/AVC
Duration                    : 1 h 26 min
Bit rate mode               : Variable
Bit rate                    : 25.5 Mb/s
Maximum bit rate            : 35.0 Mb/s
Width                       : 1 920 pixels
Height                      : 1 080 pixels
Display aspect ratio        : 16:9
Frame rate mode             : Constant
Frame rate                  : 23.976 (24000/1001) FPS
Standard                    : NTSC
Color space                 : YUV
Chroma subsampling          : 4:2:0
Bit depth                   : 8 bits
Scan type                   : Progressive
Bits/(Pixel*Frame)          : 0.514
Stream size                 : 15.4 GiB (89%)
Title                       : Distorted (2018) BDRemux 1080p
Language                    : English
Default                     : Yes
Forced                      : No
Color range                 : Limited
Color primaries             : BT.709
Transfer characteristics    : BT.709
Matrix coefficients         : BT.709
Audio #1
ID                          : 2
Format                      : AC-3
Format/Info                 : Audio Coding 3
Commercial name             : Dolby Digital
Codec ID                    : A_AC3
Duration                    : 1 h 26 min
Bit rate mode               : Constant
Bit rate                    : 384 kb/s
Channel(s)                  : 6 channels
Channel layout              : L R C LFE Ls Rs
Sampling rate               : 48.0 kHz
Frame rate                  : 31.250 FPS (1536 SPF)
Compression mode            : Lossy
Stream size                 : 237 MiB (1%)
Title                       : Русский | iTunes (Многоголосый)
Language                    : Russian
Service kind                : Complete Main
Default                     : Yes
Forced                      : No
Audio #2
ID                          : 3
Format                      : AC-3
Format/Info                 : Audio Coding 3
Commercial name             : Dolby Digital
Codec ID                    : A_AC3
Duration                    : 1 h 26 min
Bit rate mode               : Constant
Bit rate                    : 384 kb/s
Channel(s)                  : 6 channels
Channel layout              : L R C LFE Ls Rs
Sampling rate               : 48.0 kHz
Frame rate                  : 31.250 FPS (1536 SPF)
Compression mode            : Lossy
Stream size                 : 237 MiB (1%)
Title                       : Украинский | iTunes (Многоголосый)
Language                    : Ukrainian
Service kind                : Complete Main
Default                     : No
Forced                      : No
Audio #3
ID                          : 4
Format                      : DTS XLL
Format/Info                 : Digital Theater Systems
Commercial name             : DTS-HD Master Audio
Codec ID                    : A_DTS
Duration                    : 1 h 26 min
Bit rate mode               : Variable
Bit rate                    : 2 357 kb/s
Channel(s)                  : 6 channels
Channel layout              : C L R Ls Rs LFE
Sampling rate               : 48.0 kHz
Frame rate                  : 93.750 FPS (512 SPF)
Bit depth                   : 24 bits
Compression mode            : Lossless
Stream size                 : 1.42 GiB (8%)
Title                       : Английский | English DTS-HD
Language                    : English
Default                     : No
Forced                      : No
Text
ID                          : 5
Format                      : PGS
Muxing mode                 : zlib
Codec ID                    : S_HDMV/PGS
Codec ID/Info               : Picture based subtitle format used on BDs/HD-DVDs
Duration                    : 1 h 21 min
Bit rate                    : 21.3 kb/s
Count of elements           : 1480
Stream size                 : 12.5 MiB (0%)
Title                       : Английский | English
Language                    : English
Default                     : No
Forced                      : No

Скриншоты


_________________
Мои раздачи
[Торрент-статистика]
[Профиль]  [ЛС] 
Показать сообщения:    
Ответить на тему

Текущее время: Сегодня 08:42

Часовой пояс: GMT + 4



Вы не можете начинать темы
Вы не можете отвечать на сообщения
Вы не можете редактировать свои сообщения
Вы не можете удалять свои сообщения
Вы не можете голосовать в опросах
Вы не можете прикреплять файлы к сообщениям
Вы не можете скачивать файлы