Американские боги / American Gods (Сезон 3 , Серия 1- 6 из 10) (Крис Бирн, Дэвид Слэйд) [2021, Фэнтези, драма, детектив,WEB-DLRip - HEVC 10bit - 1080p] [Нота+LostFilm +HDRezka +AlexFilm +TVShows+NewStudio+Eng]+[Subs Rus , ENG]

Ответить на тему
 
Автор
Сообщение

Враг Нароода ®

Пол:

Стаж: 3 года 1 месяц

Сообщений: 229

Репутация: 279 [+] [-]

Откуда: Красногорск

Пост 29-Янв-2021 17:49

[Цитировать] 

---- ---- Американские боги / American Gods - (Сезон 3 , Серия 1- 6 из 10) ----Год выпуска: 2021
Выпущено: США , Fremantle Media North America
Жанр: Фэнтези, драма, детектив
Продолжительность: 00:55:00
Сезон:3
Серия:1- 6
Количество серий в сезоне: 10--Озвучка #1:Профессиональный (дублированный) студия "Нота" по заказу Amazon Premiere - Русский -По умолчанию
Озвучка # 2: Профессиональный многоголосый- HDRezka Studio - Русский
Озвучка # 3: Профессиональный многоголосый- AlexFilm - Русский
Озвучка # 4: Профессиональный многоголосый- TVShows - Русский
Озвучка # 5: Профессиональный многоголосый- NewStudio - Русский
Озвучка # 6: Профессиональный многоголосый- LostFilm - Русский
Озвучка # 7: Профессиональный многоголосый -Английский - Оригинал--

Субтитры :


Субтитры (UTF-8):вшитые
#1 - Русские - Russian (включены по умолчанию)
#2 - Русские- Russian (Forced)
#3- Английские - English (SDH)
#4- Английские - English (Original)


Внешние:
#1 - Русские - Russian
#2 - Русские- Russian (Forced)
#3- Английские - English (SDH)
#4- Английские - English (Original)
--Релиз Без Рекламы - Ненормативная лексика - --MDB 7.8 --Режиссеры:
Крис Бирн, Дэвид Слэйд, Адам Кэйн --В ролях: Рики Уиттл, Иэн МакШейн, Эмили Браунинг, Пабло Шрайбер, Брюс Лэнгли, Джонатан Такер, Клорис Личмен, Криспин Гловер, Йетиде Бадаки, Демор Барнс, Омид Абтахи, Орландо Джонс -- Тень — человек с прошлым. Но теперь единственное, чего он хочет — это жить тихой и спокойной жизнью со своей женой в стороне от проблем. Пока он не узнает о ее гибели в результате несчастного случая. По пути на похороны домой, когда сильнейший шторм сотрясает самолет, ему представляется странный человек с соседнего кресла. Он называет себя мистер Среда. И он знает о Тени больше, чем кажется возможным. Он предупреждает Тень, что грядет ещё больший шторм. И ничто с этого момента, включая его самого, не будет таким, как прежде.-- --Качество : WEB-DLRip - HEVC 10bit - 1080p
Формат: MKV
Видео кодек: H265
Видео: 3852 Кбит/сек,1920х1080 , (16,9),в 25.000 кадр/сек, HEVC (Main10@L5.2@Main)--Аудио Кодек:Аудио Кодек:AC3
Аудио #1: DUB-Rus- (дублированный) студия "Нота" @DD5.1 E-AC3, 640 Kbps, 48.0 KHz, 6 ch- (дублированный) студия "Нота" по заказу Amazon Premiere - Русский -По умолчанию - Русский
Аудио #2: MVO LostFilm @DD5.1 AC3, 384 Kbps, 48.0 KHz, 6 ch- LostFilm - Русский
Аудио # 3: MVO HDRezka Studio @DD5.1 AC3, 384 Kbps, 48.0 KHz, 6 ch- HDRezka Studio - Русский
Аудио #4: MVO AlexFilm @DD5.1 AC3, 384 Kbps, 48.0 KHz, 6 ch - AlexFilm - Русский
Аудио #5: MVO TVShows @DD5.1 AC3, 384 Kbps, 48.0 KHz, 6 ch - TVShows - Русский
Аудио #6: MVO NewStudio @DD5.1 AC3, 384 Kbps, 48.0 KHz, 6 ch - NewStudio - Русский
Аудио #7: English @DD5.1 E-AC3, 640 Kbps, 48.0 KHz, 6 ch - English - Оригинал-

Доп. информация:

Звуковая дорожка сделана путем наложения чистого голоса озвучивателей на центральный канал оригинальной дорожки. Качество идентично звуковой дорожке.
--

Список эпизодов сезона


3 сезон 1 серия - Зимняя сказка - A Winter's Tale
3 сезон 2 серия - Роковой лунный свет - Serious Moonlight
3 сезон 3 серия - Прах и бесы - Ashes and Demons
3 сезон 4 серия - Незримое - The Unseen
3 сезон 5 серия - Воспрянь, сестра - Sister Rising
3 сезон 6 серия - Совесть короля - Conscience of the King
--

MediaInfo

Общее
Уникальный идентификатор : 334127776065483619310134579925678048791 (0xFB5EAB3E2F1B997290C69D6E62E84617)
Полное имя : D:\Американские боги - American Gods\2021_American_Gods_S03_HEVC- 10Bit_Н265_DD5.1_N.B_HD_1080_DUB_6xRus_Eng\2021_American_Gods_S03E01_HEVC_DD5.1_N.B_HD_1080_DUB_6xRus_Eng.mkv
Формат : Matroska
Версия формата : Version 4
Размер файла : 2,75 Гбайт
Продолжительность : 55 м. 47 с.
Общий поток : 7 056 Кбит/сек
Название фильма : 2021 American Gods S03E01 @ Nikolai.Baranov & PIRATIYA
Дата кодирования : UTC 2021-01-29 07:45:35
Программа кодирования : mkvmerge v52.0.0 ('Secret For The Mad') 64-bit
Библиотека кодирования : libebml v1.4.1 + libmatroska v1.6.2
Видео
Идентификатор : 1
Формат : HEVC
Формат/Информация : High Efficiency Video Coding
Профиль формата : Main 10@L5.2@Main
Идентификатор кодека : V_MPEGH/ISO/HEVC
Продолжительность : 55 м. 47 с.
Битрейт : 3 852 Кбит/сек
Ширина : 1 920 пикселей
Высота : 1 080 пикселей
Соотношение сторон : 16:9
Режим частоты кадров : Постоянный
Частота кадров : 25,000 кадров/сек
Цветовое пространство : YUV
Субдискретизация насыщенности : 4:2:0
Битовая глубина : 10 бит
Бит/(Пиксели*Кадры) : 0.074
Размер потока : 1,50 Гбайт (55%)
Заголовок : 2021_American_Gods_S03E01_HEVC_DD5.1_N.B_HD_1080_DUB_6xRus_Eng
Язык : Russian
Default : Да
Forced : Нет
Цветовой диапазон : Full
Основные цвета : BT.709
Характеристики трансфера : BT.709
Коэффициенты матрицы : BT.709
Аудио #1
Идентификатор : 4
Формат : E-AC-3
Формат/Информация : Enhanced AC-3
Коммерческое название : Dolby Digital Plus
Идентификатор кодека : A_EAC3
Продолжительность : 55 м. 47 с.
Вид битрейта : Постоянный
Битрейт : 640 Кбит/сек
Каналы : 6 каналов
Channel layout : L R C LFE Ls Rs
Частота : 48,0 КГц
Частота кадров : 31,250 кадров/сек (1536 SPF)
Метод сжатия : С потерями
Размер потока : 255 Мбайт (9%)
Заголовок : DUB-Rus- Нота @DD5.1 E-AC3, 640 Kbps, 48.0 KHz, 6 ch
Язык : Russian
Service kind : Complete Main
Default : Да
Forced : Нет
Аудио #2
Идентификатор : 5
Формат : AC-3
Формат/Информация : Audio Coding 3
Коммерческое название : Dolby Digital
Идентификатор кодека : A_AC3
Продолжительность : 55 м. 47 с.
Вид битрейта : Постоянный
Битрейт : 384 Кбит/сек
Каналы : 6 каналов
Channel layout : L R C LFE Ls Rs
Частота : 48,0 КГц
Частота кадров : 31,250 кадров/сек (1536 SPF)
Метод сжатия : С потерями
Размер потока : 153 Мбайт (5%)
Заголовок : MVO LostFilm @DD5.1 AC3, 384 Kbps, 48.0 KHz, 6 ch
Язык : Russian
Service kind : Complete Main
Default : Нет
Forced : Нет
Аудио #3
Идентификатор : 6
Формат : AC-3
Формат/Информация : Audio Coding 3
Коммерческое название : Dolby Digital
Идентификатор кодека : A_AC3
Продолжительность : 55 м. 47 с.
Вид битрейта : Постоянный
Битрейт : 384 Кбит/сек
Каналы : 6 каналов
Channel layout : L R C LFE Ls Rs
Частота : 48,0 КГц
Частота кадров : 31,250 кадров/сек (1536 SPF)
Метод сжатия : С потерями
Размер потока : 153 Мбайт (5%)
Заголовок : MVO AlexFilm @DD5.1 AC3, 384 Kbps, 48.0 KHz, 6 ch
Язык : Russian
Service kind : Complete Main
Default : Нет
Forced : Нет
Аудио #4
Идентификатор : 7
Формат : AC-3
Формат/Информация : Audio Coding 3
Коммерческое название : Dolby Digital
Идентификатор кодека : A_AC3
Продолжительность : 55 м. 47 с.
Вид битрейта : Постоянный
Битрейт : 384 Кбит/сек
Каналы : 6 каналов
Channel layout : L R C LFE Ls Rs
Частота : 48,0 КГц
Частота кадров : 31,250 кадров/сек (1536 SPF)
Метод сжатия : С потерями
Размер потока : 153 Мбайт (5%)
Заголовок : MVO NewStudio @DD5.1 AC3, 384 Kbps, 48.0 KHz, 6 ch
Язык : Russian
Service kind : Complete Main
Default : Нет
Forced : Нет
Аудио #5
Идентификатор : 8
Формат : AC-3
Формат/Информация : Audio Coding 3
Коммерческое название : Dolby Digital
Идентификатор кодека : A_AC3
Продолжительность : 55 м. 47 с.
Вид битрейта : Постоянный
Битрейт : 384 Кбит/сек
Каналы : 6 каналов
Channel layout : L R C LFE Ls Rs
Частота : 48,0 КГц
Частота кадров : 31,250 кадров/сек (1536 SPF)
Метод сжатия : С потерями
Размер потока : 153 Мбайт (5%)
Заголовок : MVO TVShows @DD5.1 AC3, 384 Kbps, 48.0 KHz, 6 ch
Язык : Russian
Service kind : Complete Main
Default : Нет
Forced : Нет
Аудио #6
Идентификатор : 9
Формат : AC-3
Формат/Информация : Audio Coding 3
Коммерческое название : Dolby Digital
Идентификатор кодека : A_AC3
Продолжительность : 55 м. 47 с.
Вид битрейта : Постоянный
Битрейт : 384 Кбит/сек
Каналы : 6 каналов
Channel layout : L R C LFE Ls Rs
Частота : 48,0 КГц
Частота кадров : 31,250 кадров/сек (1536 SPF)
Метод сжатия : С потерями
Размер потока : 153 Мбайт (5%)
Заголовок : MVO HDRezka Studio @DD5.1 AC3, 384 Kbps, 48.0 KHz, 6 ch
Язык : Russian
Service kind : Complete Main
Default : Нет
Forced : Нет
Аудио #7
Идентификатор : 10
Формат : E-AC-3
Формат/Информация : Enhanced AC-3
Коммерческое название : Dolby Digital Plus
Идентификатор кодека : A_EAC3
Продолжительность : 55 м. 47 с.
Вид битрейта : Постоянный
Битрейт : 640 Кбит/сек
Каналы : 6 каналов
Channel layout : L R C LFE Ls Rs
Частота : 48,0 КГц
Частота кадров : 31,250 кадров/сек (1536 SPF)
Метод сжатия : С потерями
Размер потока : 255 Мбайт (9%)
Заголовок : English @DD5.1 E-AC3, 640 Kbps, 48.0 KHz, 6 ch
Язык : English
Service kind : Complete Main
Default : Нет
Forced : Нет
Текст #1
Идентификатор : 2
Формат : UTF-8
Идентификатор кодека : S_TEXT/UTF8
Идентификатор кодека/Информация : UTF-8 Plain Text
Продолжительность : 48 м. 28 с.
Битрейт : 1 бит/сек
Count of elements : 20
Размер потока : 701 байт (0%)
Заголовок : Зимняя сказка-Russian-Forced
Язык : Russian
Default : Да
Forced : Нет
Текст #2
Идентификатор : 3
Формат : UTF-8
Идентификатор кодека : S_TEXT/UTF8
Идентификатор кодека/Информация : UTF-8 Plain Text
Продолжительность : 53 м. 14 с.
Битрейт : 82 бит/сек
Count of elements : 570
Размер потока : 32,0 Кбайт (0%)
Заголовок : Зимняя сказка-Russian
Язык : Russian
Default : Нет
Forced : Нет
Текст #3
Идентификатор : 11
Формат : UTF-8
Идентификатор кодека : S_TEXT/UTF8
Идентификатор кодека/Информация : UTF-8 Plain Text
Продолжительность : 55 м. 22 с.
Битрейт : 67 бит/сек
Count of elements : 954
Размер потока : 27,5 Кбайт (0%)
Заголовок : -A Winter's Tale-English - SDH
Язык : English
Default : Нет
Forced : Нет
Текст #4
Идентификатор : 12
Формат : UTF-8
Идентификатор кодека : S_TEXT/UTF8
Идентификатор кодека/Информация : UTF-8 Plain Text
Продолжительность : 55 м. 23 с.
Битрейт : 63 бит/сек
Count of elements : 814
Размер потока : 25,8 Кбайт (0%)
Заголовок : A Winter's Tale-English
Язык : English
Default : Нет
Forced : Нет
Меню
00:00:00.000 : :Amazon Original
00:00:06.000 : :Previously On
00:03:12.000 : :Death metal tributes
00:05:59.000 : :Opening Credits
00:07:31.000 : :Factory work
00:09:48.000 : :Laura's desperate
00:11:38.000 : :Running out of luck
00:14:59.000 : :A disturbing encounter
00:18:32.000 : :Control the narrative
00:20:25.000 : :Twenty questions
00:24:45.000 : :Having technical difficulties
00:29:20.000 : :Road blockade
00:33:42.000 : :Coming to collect
00:38:08.000 : :Finding Whiskey Jack
00:41:49.000 : :Shadow wants to make his own decisions
00:45:12.000 : :Bus depot
00:46:37.000 : :Arriving in Lakeside
00:48:35.000 : :The cold North
00:50:53.000 : :A ride home
00:52:50.000 : :A broken entrance
00:54:35.000 : :End Credits
--

Скриншоты

----
3 Сезон
--Внимание! Раздача пополняется по мере выхода новых серий!--

Внимание! Раздача ведётся путём добавления новых серий!

Раздача ведётся путём добавления новых серий; при каждом добавлении создётся новый торрент.
Чтобы начать докачку новой серии, пользователям необходимо сделать следующее:
1. остановить скачивание,
2. удалить старый торрент у себя из клиента (старые серии удалять не надо),
3. скачать новый торрент и запустить его у себя в клиенте вместо старого, при этом указать клиенту путь в старую папку, куда и должно происходить скачивание новых серий.
Ваш клиент при этом должен произвести хеширование (проверку) старой папки (если не производит сам - помогите ему сделать это), и будет докачивать только те серии которых у вас ещё нет. Старые серии при этом не удаляются, а продолжают раздаваться!
Eсли вы уже удалили старые серии, то предотвратить повторную закачку старых серий можно, отжав галочку в соответсвующих местах при запуске нового торрента. По возможности, желательно не удалять старые серии как можно дольше, чтобы релизёр не столько продолжал раздавать старые серии, а смог сконцентрироваться на новых.
Совет для тех, кто не хочет ждать перехеширования:
Создайте ещё одну папку рядом с папкой сериала (рядом, а не в ней!!!). Каждую новую серию после удачной загрузки копируйте в новую папку так чтобы ваша основная папка всегда была пуста. Когда ваш новый торрент предложит вам закачать все файлы, выберете только последнюю. Для сидирования же укажите адрес новой папки.
Как закачать отдельный файл из торрента или докачать ранее пропущенные файлы торрента!

Как закачать отдельный файл

1. Открыть торрент
2. Снять галки с тех файлов торрента, которые мы не хотим закачивать. Оставляем только на нужных нам файлах (файле).
3. Нажать О.К.
В клиенте utorrent
Инструкция
1) Открыть торрент

2) Снять галки с тех файлов торрента, которые мы не хотим закачивать:
* либо вручную, снимая с каждого файла галку( скрин №1)
* либо, нажав кнопку "Снять метки (Select None)", сняв сразу со всех файлов(скрин №2)
№1

№2

Оставляем только на нужных нам файлах (файле).

3)Нажать О.К
-- -- ----Внимание!!! 27.02. 2021. РАЗДАЧА ОБНОВЛЕНА. ДОБАВЛЕНА - 6- СЕРИЯ . ОБНОВИТЕ ТОРЕНТ ФАЙЛ. ПРИЯТНОГО ПРОСМОТРА . Поблагодарить:
ЯД: 410017546713876
--Релиз от: Nikolai.Baranov & PIRATIYA -- -- -- --Время раздачи : 24/7---

_________________

Легко быть оптимистом, когда судьба не валит с ног тяжелыми ударами, а лишь иногда легонько шлепает по заднице.
[Торрент-статистика]
[Профиль]  [ЛС] 
Показать сообщения:    
Ответить на тему

Текущее время: Сегодня 10:07

Часовой пояс: GMT + 4



Вы не можете начинать темы
Вы не можете отвечать на сообщения
Вы не можете редактировать свои сообщения
Вы не можете удалять свои сообщения
Вы не можете голосовать в опросах
Вы не можете прикреплять файлы к сообщениям
Вы не можете скачивать файлы