Наследие / Legacies (Сезон 3 , Серия 1-5 из 16) ( Майкл А. Алловиц, Крис Грисмер) [ 2021,Ужасы, фэнтези, драма, детектив, приключения,WEB - HEVC 10bit - 1080p] [LostFilm+Eng]+[Subs Rus ,ENG]

Ответить на тему
 
Автор
Сообщение

Враг Нароода ®

Пол:

Стаж: 3 года 1 месяц

Сообщений: 229

Репутация: 279 [+] [-]

Откуда: Красногорск

Пост 27-Янв-2021 20:39

[Цитировать] 

[---- -- Наследие / Legacies (Сезон 3 , Серия 1-5 из 16) -- --Год выпуска: 2021
Выпущено: США , США, Sonar Entertainment, Temple Hill Entertainment
Жанр: Ужасы, фэнтези, драма, детектив, приключения
Продолжительность: 00:43:00
Сезон: 3
Серия: 1-5
Количество серий в сезоне: 16 --Озвучка #1:Профессиональный многоголосый - LostFilm - Русский
Озвучка #2:Профессиональный многоголосый - HDRezka Studio - Русский
Озвучка #3:Профессиональный многоголосый Novamedia -По умолчанию- Русский
Озвучка # 4: Профессиональный многоголосый -Английский - English --

Субтитры :


Субтитры (UTF-8):вшитые
#1 - Русские - Russian (включены по умолчанию)
#2 - Русские- Russian (Forced)
#3- Английские - English (SDH)
#4- Английские - English (Original)


Внешние:
#1 - Русские - Russian
#2 - Русские- Russian (Forced)
#3- Английские - English (SDH)
#4- Английские - English (Original)
--Релиз Без Рекламы --IMDb 7.5 -Режиссеры:
Майкл А. Алловиц, Крис Грисмер, Пол Уэсли--В ролях: Даниэль Роуз Расселл, Мэттью Дэвис, Кайли Брайант, Дженни Бойд, Ария Шахгасеми, Пейтон «Алекс» Смит, Куинси Фаус, Арчи Фолтинович, Карен Дэвид, Кэти Гарфилд--
Рассказ о следующем поколении сверхъестественных существ в Школе Сальваторе для молодых и одаренных. Дочь Клауса Майклсона, 17-летняя Хоуп Майклсон; Близнецы Аларика Зальцмана, Лиззи и Джози Зальцман, и другие молодые люди достигли совершеннолетия необычным способом, чтобы стать их лучшими личностями, несмотря на их худшие импульсы. Станут ли эти молодые ведьмы, вампиры и оборотни героями, которыми они хотят быть — или злодеями, которыми они родились?-- --Качество : WEB-DLRip - HEVC 10bit - 1080p
Формат: MKV
Видео кодек: H265
Видео: 3866 Кбит/сек,1920х1080 , (16.9),в 25.000 кадр/сек, HEVC (Main10@L5.2@Main)--Аудио Кодек:Аудио Кодек:AC3
Аудио #1: MVO Novamedia @DD5.1 E-AC3 , 320 Kbps, 48.0 KHz, 6 ch- Novamedia -По умолчанию- Русский
Аудио # 2: MVO LostFilm @DD5.1 E-AC3 , 640 Kbps, 48.0 KHz, 6 ch- LostFilm - Русский
Аудио #3: MVO HDRezka Studio @DD5.1 E-AC3 , 640 Kbps, 48.0 KHz, 6 ch- HDRezka Studio - Русский
Аудио #4: English Original@DD5.1 E-AC3 , 640 Kbps, 48.0 KHz, 6 ch - English - Английский--

Доп. информация:

Звуковая дорожка сделана путем наложения чистого голоса озвучивателей на центральный канал оригинальной дорожки. Качество идентично звуковой дорожке.
--

Список эпизодов сезона


3 сезон 1 серия - Мы не достойны - We're Not Worthy
3 сезон 2 серия - Прощания отстой - Goodbyes Sure Do Suck
3 сезон 3 серия - Сальваторе: Мюзикл! - Salvatore: The Musical!
3 сезон 4 серия - Держись крепче - Hold on Tight
3 сезон 5 серия - Вот, какова цена - This Is What It Takes
--

MediaInfo 3Сезон

Общее
Уникальный идентификатор : 93507351888074143811662316139559117787 (0x4658DC64157CADDE947A3B70C299E3DB)
Полное имя : D:\Наследие - Legacies\2021_Legacies_S03E01_HEVC- 10Bit_Н265_DD5.1_N.B_HD_1080_ Rus_Eng\2021_Legacies_S03E01_HEVC- 10Bit_DD5.1_N.B_HD_1080_Rus_Eng.mkv
Формат : Matroska
Версия формата : Version 4
Размер файла : 1,80 Гбайт
Продолжительность : 42 м. 14 с.
Общий поток : 6 109 Кбит/сек
Название фильма : 2021 Legacies S03E01 @ Nikolai.Baranov & PIRATIYA
Дата кодирования : UTC 2021-02-16 14:55:03
Программа кодирования : mkvmerge v53.0.0 ('Fool's Gold') 64-bit
Библиотека кодирования : libebml v1.4.1 + libmatroska v1.6.2
Видео
Идентификатор : 1
Формат : HEVC
Формат/Информация : High Efficiency Video Coding
Профиль формата : Main 10@L5.2@Main
Идентификатор кодека : V_MPEGH/ISO/HEVC
Продолжительность : 42 м. 14 с.
Битрейт : 3 866 Кбит/сек
Ширина : 1 920 пикселей
Высота : 1 080 пикселей
Соотношение сторон : 16:9
Режим частоты кадров : Постоянный
Частота кадров : 25,000 кадров/сек
Цветовое пространство : YUV
Субдискретизация насыщенности : 4:2:0
Битовая глубина : 10 бит
Бит/(Пиксели*Кадры) : 0.075
Размер потока : 1,14 Гбайт (63%)
Заголовок : 2021_Legacies_S03E01_HEVC- 10Bit_DD5.1_N.B_HD_1080_Rus_Eng
Язык : Russian
Default : Да
Forced : Нет
Цветовой диапазон : Full
Основные цвета : BT.709
Характеристики трансфера : BT.709
Коэффициенты матрицы : BT.709
Аудио #1
Идентификатор : 4
Формат : E-AC-3
Формат/Информация : Enhanced AC-3
Коммерческое название : Dolby Digital Plus
Идентификатор кодека : A_EAC3
Продолжительность : 42 м. 14 с.
Вид битрейта : Постоянный
Битрейт : 640 Кбит/сек
Каналы : 6 каналов
Channel layout : L R C LFE Ls Rs
Частота : 48,0 КГц
Частота кадров : 31,250 кадров/сек (1536 SPF)
Метод сжатия : С потерями
Размер потока : 193 Мбайт (10%)
Заголовок : MVO LostFilm @DD5.1 E-AC3, 640 Kbps, 48.0 KHz, 6 ch
Язык : Russian
Service kind : Complete Main
Default : Нет
Forced : Нет
Аудио #2
Идентификатор : 5
Формат : E-AC-3
Формат/Информация : Enhanced AC-3
Коммерческое название : Dolby Digital Plus
Идентификатор кодека : A_EAC3
Продолжительность : 42 м. 14 с.
Вид битрейта : Постоянный
Битрейт : 640 Кбит/сек
Каналы : 6 каналов
Channel layout : L R C LFE Ls Rs
Частота : 48,0 КГц
Частота кадров : 31,250 кадров/сек (1536 SPF)
Метод сжатия : С потерями
Размер потока : 193 Мбайт (10%)
Заголовок : MVO HDRezka Studio @DD5.1 E-AC3, 640 Kbps, 48.0 KHz, 6 ch
Язык : Russian
Service kind : Complete Main
Default : Нет
Forced : Нет
Аудио #3
Идентификатор : 6
Формат : E-AC-3
Формат/Информация : Enhanced AC-3
Коммерческое название : Dolby Digital Plus
Идентификатор кодека : A_EAC3
Продолжительность : 42 м. 14 с.
Вид битрейта : Постоянный
Битрейт : 320 Кбит/сек
Каналы : 6 каналов
Channel layout : L R C LFE Ls Rs
Частота : 48,0 КГц
Частота кадров : 31,250 кадров/сек (1536 SPF)
Метод сжатия : С потерями
Размер потока : 96,7 Мбайт (5%)
Заголовок : MVO Novamedia @DD5.1 E-AC3, 320 Kbps, 48.0 KHz, 6 ch
Язык : Russian
Service kind : Complete Main
Default : Да
Forced : Нет
Аудио #4
Идентификатор : 7
Формат : E-AC-3
Формат/Информация : Enhanced AC-3
Коммерческое название : Dolby Digital Plus
Идентификатор кодека : A_EAC3
Продолжительность : 42 м. 14 с.
Вид битрейта : Постоянный
Битрейт : 640 Кбит/сек
Каналы : 6 каналов
Channel layout : L R C LFE Ls Rs
Частота : 48,0 КГц
Частота кадров : 31,250 кадров/сек (1536 SPF)
Метод сжатия : С потерями
Размер потока : 193 Мбайт (10%)
Заголовок : English @DD5.1E- AC3, 640 Kbps, 48.0 KHz, 6 ch
Язык : English
Service kind : Complete Main
Default : Нет
Forced : Нет
Текст #1
Идентификатор : 2
Формат : UTF-8
Идентификатор кодека : S_TEXT/UTF8
Идентификатор кодека/Информация : UTF-8 Plain Text
Продолжительность : 31 м. 45 с.
Битрейт : 0 бит/сек
Count of elements : 3
Размер потока : 98,0 байт (0%)
Заголовок : Мы не достойны-Russian-Forced
Язык : Russian
Default : Да
Forced : Нет
Текст #2
Идентификатор : 3
Формат : UTF-8
Идентификатор кодека : S_TEXT/UTF8
Идентификатор кодека/Информация : UTF-8 Plain Text
Продолжительность : 41 м. 43 с.
Битрейт : 109 бит/сек
Count of elements : 657
Размер потока : 33,6 Кбайт (0%)
Заголовок : Мы не достойны-Russian
Язык : Russian
Default : Нет
Forced : Нет
Текст #3
Идентификатор : 8
Формат : UTF-8
Идентификатор кодека : S_TEXT/UTF8
Идентификатор кодека/Информация : UTF-8 Plain Text
Продолжительность : 41 м. 37 с.
Битрейт : 76 бит/сек
Count of elements : 813
Размер потока : 23,3 Кбайт (0%)
Заголовок : We're Not Worthy-Original - SDH
Язык : English
Default : Нет
Forced : Нет
Текст #4
Идентификатор : 9
Формат : UTF-8
Идентификатор кодека : S_TEXT/UTF8
Идентификатор кодека/Информация : UTF-8 Plain Text
Продолжительность : 41 м. 37 с.
Битрейт : 70 бит/сек
Count of elements : 733
Размер потока : 21,6 Кбайт (0%)
Заголовок : We're Not Worthy-Original
Язык : English
Default : Нет
Forced : Нет
Меню
00:00:00.000 : ru:Глава 01 / ru:Глава 01 / ru:Глава 01 / ru:Глава 01 / ru:Глава 01 / ru:Глава 01 / ru:Глава 01 / ru:Глава 01 / ru:Глава 01
--

Скриншоты

--
3Сезон
--Внимание! Раздача пополняется по мере выхода новых серий!--

Внимание! Раздача ведётся путём добавления новых серий!

Раздача ведётся путём добавления новых серий; при каждом добавлении создётся новый торрент.
Чтобы начать докачку новой серии, пользователям необходимо сделать следующее:
1. остановить скачивание,
2. удалить старый торрент у себя из клиента (старые серии удалять не надо),
3. скачать новый торрент и запустить его у себя в клиенте вместо старого, при этом указать клиенту путь в старую папку, куда и должно происходить скачивание новых серий.
Ваш клиент при этом должен произвести хеширование (проверку) старой папки (если не производит сам - помогите ему сделать это), и будет докачивать только те серии которых у вас ещё нет. Старые серии при этом не удаляются, а продолжают раздаваться!
Eсли вы уже удалили старые серии, то предотвратить повторную закачку старых серий можно, отжав галочку в соответсвующих местах при запуске нового торрента. По возможности, желательно не удалять старые серии как можно дольше, чтобы релизёр не столько продолжал раздавать старые серии, а смог сконцентрироваться на новых.
Совет для тех, кто не хочет ждать перехеширования:
Создайте ещё одну папку рядом с папкой сериала (рядом, а не в ней!!!). Каждую новую серию после удачной загрузки копируйте в новую папку так чтобы ваша основная папка всегда была пуста. Когда ваш новый торрент предложит вам закачать все файлы, выберете только последнюю. Для сидирования же укажите адрес новой папки.
Как закачать отдельный файл из торрента или докачать ранее пропущенные файлы торрента!

Как закачать отдельный файл

1. Открыть торрент
2. Снять галки с тех файлов торрента, которые мы не хотим закачивать. Оставляем только на нужных нам файлах (файле).
3. Нажать О.К.
В клиенте utorrent
Инструкция
1) Открыть торрент

2) Снять галки с тех файлов торрента, которые мы не хотим закачивать:
* либо вручную, снимая с каждого файла галку( скрин №1)
* либо, нажав кнопку "Снять метки (Select None)", сняв сразу со всех файлов(скрин №2)
№1

№2

Оставляем только на нужных нам файлах (файле).

3)Нажать О.К
-- -- --Внимание!! ! 22.02. 2021. РАЗДАЧА ОБНОВЛЕНА. ДОБАВЛЕНА - 5- СЕРИЯ . + АУДИО ДОРОЖКИ HDRezka Studio , Novamedia . ОБНОВИТЕ ТОРЕНТ ФАЙЛ. ПРИЯТНОГО ПРОСМОТРА . Поблагодарить:
ЯД: 410017546713876
--Релиз от: Nikolai.Baranov & PIRATIYA -- -- -- --Время раздачи : 24/7---

_________________

Легко быть оптимистом, когда судьба не валит с ног тяжелыми ударами, а лишь иногда легонько шлепает по заднице.
[Торрент-статистика]
[Профиль]  [ЛС] 
Показать сообщения:    
Ответить на тему

Текущее время: Сегодня 09:49

Часовой пояс: GMT + 4



Вы не можете начинать темы
Вы не можете отвечать на сообщения
Вы не можете редактировать свои сообщения
Вы не можете удалять свои сообщения
Вы не можете голосовать в опросах
Вы не можете прикреплять файлы к сообщениям
Вы не можете скачивать файлы