Еще по одной / Druk / Another Round (Томас Винтерберг / Thomas Vinterberg) [2020, Дания, Швеция, Нидерланды, драма, комедия, BDRemux 1080p] (Dub) iTunes + Sub (Rus, Eng) + Original Dan

Ответить на тему
 
Автор
Сообщение

Волк ®

Пол:

Стаж: 9 лет 2 месяца

Сообщений: 849

Репутация: 333 [+] [-]

Откуда: Армения

Пост 11-Янв-2021 23:17

[Цитировать] 

Еще по одной / Druk / Another Round- Страна: Дания, Швеция, Нидерланды
Жанр: драма, комедия
Год выпуска: 2020
Продолжительность: 01:56:19-Перевод: Профессиональный (Дублированный ) | iTunes
Субтитры: русские, английские
Оригинальная аудиодорожка: датский-Режиссер:
Томас Винтерберг / Thomas Vinterberg-В ролях: Мадс Миккельсен, Томас Бо Ларсен, Магнус Милланг, Ларс Ранте, Мария Бонневи, Хелена Рейнгор Нойманн, Суссе Вольд, Магнус Сьёруп, Силас Корнелиус Ван, Альберт Рудбек Линдхардт-Описание: В ресторане собираются учитель истории, психологии, музыки и физрук, чтобы отметить 40-летие одного из них. И решают проверить научную теорию о том, что c самого рождения человек страдает от нехватки алкоголя в крови, а чтобы стать по-настоящему счастливым, нужно быть немного нетрезвым. Друзья договариваются наблюдать, как возлияния скажутся на их работе и личной жизни, и устанавливают правила: не пить вечером и по выходным. Казалось бы, что может пойти не так?- -Качество: BDRemux 1080p
Видео: MPEG-4 AVC, 1920x1080, 21.0 Mbit/s, 24.000 fps
Аудио 1: 48 kHz, AC3, 5.1, 384 Kbps | iTunes | RUS |
Аудио 2: 48 kHz, DTS-HD MA, 5.1, 3438 Kbps | Оригинал | DAN |
Субтитры: Русские (Full), английские-

MediaInfo


Код:
General
Unique ID : 20583836895509085523165946734146425847 (0xF7C4D834D0ED11E948EFECE05DB13F7)
Complete name : E:\VideoFirst\Druk.2020.BDREMUX.1080p.seleZen.mkv
Format : Matroska
Format version : Version 4
File size : 20.2 GiB
Duration : 1 h 56 min
Overall bit rate mode : Variable
Overall bit rate : 24.8 Mb/s
Movie name : Druk 2020 from seleZen
Encoded date : UTC 2021-01-10 23:34:57
Writing application : mkvmerge v40.0.0 ('Old Town Road + Pony') 64-bit
Writing library : libebml v1.3.9 + libmatroska v1.5.2
Video
ID : 1
Format : AVC
Format/Info : Advanced Video Codec
Format profile : High@L4.1
Format settings : CABAC / 4 Ref Frames
Format settings, CABAC : Yes
Format settings, Reference : 4 frames
Format settings, GOP : M=3, N=12
Codec ID : V_MPEG4/ISO/AVC
Duration : 1 h 56 min
Bit rate mode : Variable
Bit rate : 21.0 Mb/s
Maximum bit rate : 35.0 Mb/s
Width : 1 920 pixels
Height : 1 080 pixels
Display aspect ratio : 16:9
Frame rate mode : Constant
Frame rate : 24.000 FPS
Standard : NTSC
Color space : YUV
Chroma subsampling : 4:2:0
Bit depth : 8 bits
Scan type : Progressive
Bits/(Pixel*Frame) : 0.422
Stream size : 17.1 GiB (85%)
Language : English
Default : No
Forced : No
Color range : Limited
Color primaries : BT.709
Transfer characteristics : BT.709
Matrix coefficients : BT.709
Audio #1
ID : 2
Format : AC-3
Format/Info : Audio Coding 3
Commercial name : Dolby Digital
Codec ID : A_AC3
Duration : 1 h 56 min
Bit rate mode : Constant
Bit rate : 384 kb/s
Channel(s) : 6 channels
Channel layout : L R C LFE Ls Rs
Sampling rate : 48.0 kHz
Frame rate : 31.250 FPS (1536 SPF)
Compression mode : Lossy
Stream size : 319 MiB (2%)
Title : iTunes
Language : Russian
Service kind : Complete Main
Default : Yes
Forced : Yes
Audio #2
ID : 3
Format : DTS XLL
Format/Info : Digital Theater Systems
Commercial name : DTS-HD Master Audio
Codec ID : A_DTS
Duration : 1 h 56 min
Bit rate mode : Variable
Bit rate : 3 438 kb/s
Channel(s) : 6 channels
Channel layout : C L R Ls Rs LFE
Sampling rate : 48.0 kHz
Frame rate : 93.750 FPS (512 SPF)
Bit depth : 24 bits
Compression mode : Lossless
Stream size : 2.79 GiB (14%)
Title : Original
Language : Danish
Default : No
Forced : No
Text #1
ID : 4
Format : UTF-8
Codec ID : S_TEXT/UTF8
Codec ID/Info : UTF-8 Plain Text
Duration : 1 h 52 min
Bit rate : 61 b/s
Count of elements : 1009
Stream size : 50.5 KiB (0%)
Title : Full
Language : Russian
Default : No
Forced : No
Text #2
ID : 5
Format : UTF-8
Codec ID : S_TEXT/UTF8
Codec ID/Info : UTF-8 Plain Text
Duration : 1 h 52 min
Bit rate : 45 b/s
Count of elements : 1040
Stream size : 37.1 KiB (0%)
Title : Full
Language : English
Default : No
Forced : No
Menu
00:00:00.000 : en:Chapter 01
00:09:59.666 : en:Chapter 02
00:19:59.750 : en:Chapter 03
00:29:59.875 : en:Chapter 04
00:39:59.708 : en:Chapter 05
00:49:59.833 : en:Chapter 06
00:59:59.708 : en:Chapter 07
01:09:59.791 : en:Chapter 08
01:19:59.583 : en:Chapter 09
01:29:59.875 : en:Chapter 10
01:39:59.416 : en:Chapter 11
01:49:59.916 : en:Chapter 12

Скриншоты


_________________
Мои раздачи
[Торрент-статистика]
[Профиль]  [ЛС] 
Показать сообщения:    
Ответить на тему

Текущее время: Сегодня 21:09

Часовой пояс: GMT + 4



Вы не можете начинать темы
Вы не можете отвечать на сообщения
Вы не можете редактировать свои сообщения
Вы не можете удалять свои сообщения
Вы не можете голосовать в опросах
Вы не можете прикреплять файлы к сообщениям
Вы не можете скачивать файлы