Еще по одной / Druk (Another Round) (Томас Винтерберг) [2020, Драма, комедия,BDRip- HEVC 10bit - 1080p] [iTunes]

Ответить на тему
 
Автор
Сообщение

Враг Нароода ®

Пол:

Стаж: 3 года

Сообщений: 226

Репутация: 264 [+] [-]

Откуда: Красногорск

Пост 11-Янв-2021 21:53

[Цитировать] 

---- -- Еще по одной / Druk (Another Round) -Год выпуска: 2020
Выпущено: Дания, Швеция, Нидерланды, Zentropa Entertainments, Film i Väst, Zentropa International Sweden
Жанр: Драма, комедия
Продолжительность: 01:56:19
Озвучка #1: Дублированный- [iTunes]-Русский
Озвучка # 2: Профессиональный многоголосый- AMS (По заказу KinoPub) - Русский
Озвучка # 3: Профессиональный многоголосый -Датский- Оригинал--Субтитры: Русские, английские
Релиз Без Рекламы --MDB 7.8 --Режиссер:
Томас Винтерберг --В ролях: Мадс Миккельсен, Томас Бо Ларсен, Магнус Милланг, Ларс Ранте, Мария Бонневи, Хелена Рейнгор Нойманн, Суссе Вольд, Магнус Шёруп, Сайлас Корнелиус Ван, Альберт Рудбек Линдхардт -- В ресторане собираются учитель истории, психологии, музыки и физрук, чтобы отметить 40-летие одного из них. И решают проверить научную теорию о том, что c самого рождения человек страдает от нехватки алкоголя в крови, а чтобы стать по-настоящему счастливым, нужно быть немного нетрезвым. Друзья договариваются наблюдать, как возлияния скажутся на их работе и личной жизни, и устанавливают правила: не пить вечером и по выходным. Казалось бы, что может пойти не так?-- --Качество :
-BDRip - HEVC 10bit - 1080p.
Формат: MKV
Видео кодек: H265
Видео: 4174 Кбит/сек,2160х1080(2.000), в 25.000 кадр/сек , HEVC (Main10@L5.2@Main)--Аудио Кодек: AC3
Аудио #1: Rus-iTunes @DD5.1 AC3 , 384 Kbps, 48.0 KHz, 6 ch -Русский
Аудио # 2: MVO AMS @DD5.1 AC3, 384 Kbps, 48.0 KHz, 6 ch- AMS - Русский
Аудио #3: Original @DD5.1 AC3, 384 Kbps, 48.0 KHz, 6 ch - Датский - Оригинал
Аудио #4: Original@DD5.1 DTS , 1509 Kbps, 48.0 KHz, 6 ch - Датский - Оригинал--

MediaInfo

Код:
Общее
Уникальный идентификатор                 : 320596569321936252990057265067081911443 (0xF130A73E2D466E198976B1F2B7ACCC93)
Полное имя                               : F:\Еще по одной  -  Druk (Another Round)\2020_Druk (Another Round)_HEVC- 10Bit_Н265_DD5.1_N.B_BDRip_1080_DUB_2xRus_Eng\2020_Druk (Another Round)_HEVC_DD5.1_N.B_BDRip_1080_DUB_2xRus_Eng.mkv
Формат                                   : Matroska
Версия формата                           : Version 4
Размер файла                             : 5,56 Гбайт
Продолжительность                        : 1 ч. 56 м.
Общий поток                              : 6 838 Кбит/сек
Название фильма                          : 2020 Druk (Another Round) @ Nikolai.Baranov & PIRATIYA
Дата кодирования                         : UTC 2021-01-11 14:24:02
Программа кодирования                    : mkvmerge v52.0.0 ('Secret For The Mad') 64-bit
Библиотека кодирования                   : libebml v1.4.1 + libmatroska v1.6.2
Видео
Идентификатор                            : 1
Формат                                   : HEVC
Формат/Информация                        : High Efficiency Video Coding
Профиль формата                          : Main 10@L5.2@Main
Идентификатор кодека                     : V_MPEGH/ISO/HEVC
Продолжительность                        : 1 ч. 56 м.
Битрейт                                  : 4 174 Кбит/сек
Ширина                                   : 2 160 пикселей
Высота                                   : 1 080 пикселей
Соотношение сторон                       : 2,000
Режим частоты кадров                     : Постоянный
Частота кадров                           : 25,000 кадров/сек
Цветовое пространство                    : YUV
Субдискретизация насыщенности            : 4:2:0
Битовая глубина                          : 10 бит
Бит/(Пиксели*Кадры)                      : 0.072
Размер потока                            : 3,39 Гбайт (61%)
Язык                                     : Russian
Default                                  : Да
Forced                                   : Нет
Цветовой диапазон                        : Full
Основные цвета                           : BT.709
Характеристики трансфера                 : BT.709
Коэффициенты матрицы                     : BT.709
Аудио #1
Идентификатор                            : 3
Формат                                   : AC-3
Формат/Информация                        : Audio Coding 3
Коммерческое название                    : Dolby Digital
Идентификатор кодека                     : A_AC3
Продолжительность                        : 1 ч. 56 м.
Вид битрейта                             : Постоянный
Битрейт                                  : 384 Кбит/сек
Каналы                                   : 6 каналов
Channel layout                           : L R C LFE Ls Rs
Частота                                  : 48,0 КГц
Частота кадров                           : 31,250 кадров/сек (1536 SPF)
Метод сжатия                             : С потерями
Размер потока                            : 319 Мбайт (6%)
Заголовок                                : Dub Rus iTunes  @DD5.1  AC3,  384  Kbps, 48.0 KHz, 6 ch
Язык                                     : Russian
Service kind                             : Complete Main
Default                                  : Да
Forced                                   : Да
Аудио #2
Идентификатор                            : 4
Формат                                   : AC-3
Формат/Информация                        : Audio Coding 3
Коммерческое название                    : Dolby Digital
Идентификатор кодека                     : A_AC3
Продолжительность                        : 1 ч. 56 м.
Вид битрейта                             : Постоянный
Битрейт                                  : 384 Кбит/сек
Каналы                                   : 6 каналов
Channel layout                           : L R C LFE Ls Rs
Частота                                  : 48,0 КГц
Частота кадров                           : 31,250 кадров/сек (1536 SPF)
Метод сжатия                             : С потерями
Размер потока                            : 319 Мбайт (6%)
Заголовок                                : MVO  AMS  @DD5.1  AC3,  384  Kbps, 48.0 KHz, 6 ch
Язык                                     : Russian
Service kind                             : Complete Main
Default                                  : Нет
Forced                                   : Нет
Аудио #3
Идентификатор                            : 5
Формат                                   : AC-3
Формат/Информация                        : Audio Coding 3
Коммерческое название                    : Dolby Digital
Идентификатор кодека                     : A_AC3
Продолжительность                        : 1 ч. 56 м.
Вид битрейта                             : Постоянный
Битрейт                                  : 384 Кбит/сек
Каналы                                   : 6 каналов
Channel layout                           : L R C LFE Ls Rs
Частота                                  : 48,0 КГц
Частота кадров                           : 31,250 кадров/сек (1536 SPF)
Метод сжатия                             : С потерями
Размер потока                            : 319 Мбайт (6%)
Заголовок                                : Original@DD5.1 AC3 , 384  Kbps, 48.0 KHz, 6 ch
Язык                                     : Danish
Service kind                             : Complete Main
Default                                  : Нет
Forced                                   : Нет
Аудио #4
Идентификатор                            : 6
Формат                                   : DTS
Формат/Информация                        : Digital Theater Systems
Идентификатор кодека                     : A_DTS
Продолжительность                        : 1 ч. 56 м.
Вид битрейта                             : Постоянный
Битрейт                                  : 1 509 Кбит/сек
Каналы                                   : 6 каналов
Channel layout                           : C L R Ls Rs LFE
Частота                                  : 48,0 КГц
Частота кадров                           : 93,750 кадра/сек (512 SPF)
Битовая глубина                          : 24 бит
Метод сжатия                             : С потерями
Размер потока                            : 1,23 Гбайт (22%)
Заголовок                                : Original@  DTS , 1509  Kbps, 48.0 KHz, 6 ch
Язык                                     : Danish
Default                                  : Нет
Forced                                   : Нет
Текст #1
Идентификатор                            : 2
Формат                                   : UTF-8
Идентификатор кодека                     : S_TEXT/UTF8
Идентификатор кодека/Информация          : UTF-8 Plain Text
Продолжительность                        : 1 ч. 52 м.
Битрейт                                  : 61 бит/сек
Count of elements                        : 1009
Размер потока                            : 50,5 Кбайт (0%)
Заголовок                                : Full-Russian
Язык                                     : Russian
Default                                  : Да
Forced                                   : Нет
Текст #2
Идентификатор                            : 7
Формат                                   : UTF-8
Идентификатор кодека                     : S_TEXT/UTF8
Идентификатор кодека/Информация          : UTF-8 Plain Text
Продолжительность                        : 1 ч. 52 м.
Битрейт                                  : 45 бит/сек
Count of elements                        : 1040
Размер потока                            : 37,1 Кбайт (0%)
Заголовок                                : Full -English
Язык                                     : English
Default                                  : Нет
Forced                                   : Нет
Меню
00:00:00.000                             : :QUARK
00:09:59.667                             : :Chapter 2
00:19:59.750                             : :Chapter 3
00:29:59.875                             : :Chapter 4
00:39:59.833                             : :Chapter 5
00:49:59.958                             : :Chapter 6
00:59:59.833                             : :Chapter 7
01:09:59.792                             : :Chapter 8
01:19:59.708                             : :Chapter 9
01:29:59.875                             : :Chapter 10
01:39:59.417                             : :Chapter 11
01:49:59.917                             : :Chapter 12
--

Скриншоты

---- -- -- ----Релиз от: Nikolai.Baranov & PIRATIYAПоблагодарить:
ЯД: 410017546713876
-- -- -- --Время раздачи : 24/7---

_________________

Легко быть оптимистом, когда судьба не валит с ног тяжелыми ударами, а лишь иногда легонько шлепает по заднице.


Последний раз редактировалось: Враг Нароода (2021-01-12 09:17), всего редактировалось 1 раз
[Торрент-статистика]
[Профиль]  [ЛС] 

Волк

Пол:

Стаж: 9 лет 2 месяца

Сообщений: 849

Репутация: 333 [+] [-]

Откуда: Армения

Пост 11-Янв-2021 22:47 (спустя 54 минуты)

[Цитировать] 

Враг Нароода
Прочитайте Разрешение UHD и 4К: в чем разница?
# сомнительно
Ширина : 2 160 пикселей
Высота : 1 080 пикселей

_________________
Мои раздачи


Последний раз редактировалось: Волк (2021-01-11 22:51), всего редактировалось 1 раз
[Торрент-статистика]
[Профиль]  [ЛС] 

Пост 11-Янв-2021 22:49 (спустя 1 минута)

Топик был перенесен из форума UHD Video в форум Зарубежное кино
Волк
 
Показать сообщения:    
Ответить на тему

Текущее время: Сегодня 21:27

Часовой пояс: GMT + 4



Вы не можете начинать темы
Вы не можете отвечать на сообщения
Вы не можете редактировать свои сообщения
Вы не можете удалять свои сообщения
Вы не можете голосовать в опросах
Вы не можете прикреплять файлы к сообщениям
Вы не можете скачивать файлы