Мажор. Фильм / Mazhor. Fil'm (Максим Полинский, Николай Булыгин) [2021, Боевик, комедия,WEB-DLRip - HEVC 10bit - 1080p]

Ответить на тему
 
Автор
Сообщение

Враг Нароода ®

Пол:

Стаж: 3 года

Сообщений: 227

Репутация: 267 [+] [-]

Откуда: Красногорск

Пост 09-Янв-2021 21:16

[Цитировать] 

---- -- Мажор. Фильм / Mazhor. Fil'm -Год выпуска: 2021
Выпущено: Россия , Продюсерская компания «Среда»
Жанр: Боевик, комедия
Продолжительность: 01:38:45
Озвучка : -Русский --Субтитры (UTF-8): вшитые
#1 - Русские - Russian (включены по умолчанию)
--Релиз Без Рекламы -- --Режиссер:
Максим Полинский, Николай Булыгин --В ролях: Максим Полинский, Николай Булыгин
В ролях: Павел Прилучный, Евгений Стычкин, Агния Дитковските, Дарина Эрвин, Даниил Воробьёв, Владимир Селезнев, Дмитрий Шевченко, Александр Обласов, Игорь Жижикин, Павел Чинарёв
-- Мажор виртуозно сбегает из тюрьмы и начинает новую жизнь. Новую сладкую жизнь! Соколовский вливается в светскую тусовку, где все сидят на новом синтетическом наркотике, и его снова окружают тачки, виллы и топ-модели. Друзья, враги и ФСБ идут по следу Мажора, пытаясь понять, какую игру он затеял и на чьей он стороне. Игорь же пытается понять, кто он сам — предатель, святой или всё тот же… Мажор?. -- --Качество :
-WEB-DLRip - HEVC 10bit - 1080p.
Формат: MKV
Видео кодек: H265
Видео: 3758 Кбит/сек,1920х808(2.40.1), в 25.000 кадр/сек , HEVC (Main10@L5.2@Main)--Аудио Кодек: AC3
Аудио #1: Rus-iOriginal@DD5.1 E-AC3 , 320 Kbps, 48.0 KHz, 6 ch -Русский--

MediaInfo

Общее
Уникальный идентификатор : 212754775310518460407793391210374608297 (0xA00F144A43C86DC77CB177B5CBC7B5A9)
Полное имя : E:\Baranov\Мажор. Фильм - Mazhor. Fil'm\2021_Mazhor. Fil'm_HEVC- 10Bit_Н265_DD5.1_N.B_HD_1080_Rus\2021_Mazhor. Fil'm_HEVC- 10Bit_DD5.1_N.B_HD_1080_Rus.mkv
Формат : Matroska
Версия формата : Version 4
Размер файла : 2,82 Гбайт
Продолжительность : 1 ч. 38 м.
Общий поток : 4 090 Кбит/сек
Название фильма : Mazhor. Fil'm 2021 @ Nikolai.Baranov & PIRATIYA
Дата кодирования : UTC 2021-01-09 08:21:57
Программа кодирования : mkvmerge v52.0.0 ('Secret For The Mad') 64-bit
Библиотека кодирования : libebml v1.4.1 + libmatroska v1.6.2
Видео
Идентификатор : 1
Формат : HEVC
Формат/Информация : High Efficiency Video Coding
Профиль формата : Main 10@L5.2@Main
Идентификатор кодека : V_MPEGH/ISO/HEVC
Продолжительность : 1 ч. 38 м.
Битрейт : 3 768 Кбит/сек
Ширина : 1 920 пикселей
Высота : 808 пикселей
Соотношение сторон : 2,40:1
Режим частоты кадров : Постоянный
Частота кадров : 25,000 кадров/сек
Цветовое пространство : YUV
Субдискретизация насыщенности : 4:2:0
Битовая глубина : 10 бит
Бит/(Пиксели*Кадры) : 0.097
Размер потока : 2,60 Гбайт (92%)
Заголовок : 2021_Mazhor. Fil'm_HEVC- 10Bit_DD5.1_N.B_HD_1080_Rus
Язык : Russian
Default : Да
Forced : Нет
Цветовой диапазон : Full
Основные цвета : BT.709
Характеристики трансфера : BT.709
Коэффициенты матрицы : BT.709
Аудио
Идентификатор : 2
Формат : E-AC-3
Формат/Информация : Enhanced AC-3
Коммерческое название : Dolby Digital Plus
Идентификатор кодека : A_EAC3
Продолжительность : 1 ч. 38 м.
Вид битрейта : Постоянный
Битрейт : 320 Кбит/сек
Каналы : 6 каналов
Channel layout : L R C LFE Ls Rs
Частота : 48,0 КГц
Частота кадров : 31,250 кадров/сек (1536 SPF)
Метод сжатия : С потерями
Размер потока : 226 Мбайт (8%)
Заголовок : Original@DD5.1 E-AC3 , 320 Kbps, 48.0 KHz, 6 ch
Язык : Russian
Service kind : Complete Main
Default : Да
Forced : Нет
Текст
Идентификатор : 3
Формат : UTF-8
Идентификатор кодека : S_TEXT/UTF8
Идентификатор кодека/Информация : UTF-8 Plain Text
Продолжительность : 1 ч. 33 м.
Битрейт : 86 бит/сек
Count of elements : 1219
Размер потока : 59,2 Кбайт (0%)
Заголовок : Original
Язык : Russian
Default : Да
Forced : Нет
Меню
00:00:00.000 : ru:Глава 01 / ru:Глава 01 / ru:Глава 01
--

Скриншоты

---- -- -- ----Релиз от: Nikolai.Baranov & PIRATIYAПоблагодарить:
ЯД: 410017546713876
-- -- -- --Время раздачи : 24/7---

_________________

Легко быть оптимистом, когда судьба не валит с ног тяжелыми ударами, а лишь иногда легонько шлепает по заднице.
[Торрент-статистика]
[Профиль]  [ЛС] 
Показать сообщения:    
Ответить на тему

Текущее время: Сегодня 12:25

Часовой пояс: GMT + 4



Вы не можете начинать темы
Вы не можете отвечать на сообщения
Вы не можете редактировать свои сообщения
Вы не можете удалять свои сообщения
Вы не можете голосовать в опросах
Вы не можете прикреплять файлы к сообщениям
Вы не можете скачивать файлы