Вратарь Галактики / Goalkeeper of the galaxy (Джаник Файзиев) [2020, Приключения, фантастика,WEB-DLRip - HEVC 10bit - 1080p] [iTunes]

Ответить на тему
 
Автор
Сообщение

Враг Нароода ®

Пол:

Стаж: 2 года 10 месяцев

Сообщений: 221

Репутация: 252 [+] [-]

Откуда: Красногорск

Пост 28-Окт-2020 14:50

[Цитировать] 

---- -- Вратарь Галактики / Goalkeeper of the galaxy -Год выпуска: 2020
Выпущено: Россия , Телеканал «РОССИЯ 1», Бонанза Студио, Кинокомпания CTB
Жанр: Приключения, фантастика
Продолжительность: 01:58:23
Озвучка : -Русский --Релиз Без Рекламы --MDB 4.1 --Режиссер:
Джаник Файзиев --В ролях: Евгений Романцов, Виктория Агалакова, Евгений Миронов, Иван Иванович, Елизавета Тайченачева, Мария Лисовая, Елена Яковлева, Михаил Ефремов, Дмитрий Назаров, Светлана Иванова, Вольфганг Черни, Юлия Винс, Христина Блохина, Валерия Букина, Станислав Рогачёв, Михаил Стенин, Сослан Фидаров, Полина Стремоусова, Руслан Щедрин, Александра Велескевич, Арсений Краковский, Евгений Косырев, Людмила Гошко, Лия Мао, Гэ Ян, Светлана Пермякова, Евгений Куршинский, Ксана Радченко, Александра Черкасова, Марта Тимофеева, Владимир Поглазов, Дмитрий Ярцев, Иван Федотов, Иван Егоров, Юрий Сазонов, Павел Дорофеев, Алексей Павлов, Елена Котихина, Геннадий Краковский -- 2071 год. Галактические войны разрушили Луну и изменили климат на Земле. Москва – в тропических лесах, а Нью-Йорк покрылся льдом. Над Москвой возвышается огромный инопланетный корабль – это стадион, на котором проходят зрелищные межгалактические соревнования по космоболу — игре, объединившей в себе спорт и гладиаторские бои. За матчами следит вся галактика. Играть в космобол могут только атлеты. Именно так называют тех, кто наделен необыкновенными способностями и может ими управлять. Космобол обожают все, кроме Антона, самого обычного парня, который всего лишь мечтает найти работу, чтобы помочь семье. Но однажды у него обнаруживают сверхспособности, и принимают в сборную. Теперь он игрок в космобол. Антон ещё не подозревает о том, какая роль уготована ему судьбой в этом матче, и что финальная игра станет сражением за Землю. -- --Качество :
-WEB-DLRip - HEVC 10bit - 1080p.
Формат: MKV
Видео кодек: H265
Видео: 3020 Кбит/сек,1920х808(2.40.1), в 25.000 кадр/сек , HEVC (Main10@L5.2@Main)--Аудио Кодек: AC3
Аудио #1: Rus-iTunes @DD5.1 AC3 , 3840 Kbps, 48.0 KHz, 6 ch -Русский--

MediaInfo

Общее
Уникальный идентификатор : 107413823443618219357593578310807654794 (0x50CF265FEB72E21A17A01713ED65118A)
Полное имя : E:\Baranov\Вратарь Галактики - Goalkeeper of the galaxy\Goalkeeper_of_the_galaxy_2020_HEVC- 10Bit_Н265_DD5.1_N.B_HD_1080_Rus\Goalkeeper_of_the_galaxy_2020_HEVC_Н265_DD5.1_N.B_HD_1080_Rus.mkv
Формат : Matroska
Версия формата : Version 4
Размер файла : 2,82 Гбайт
Продолжительность : 1 ч. 58 м.
Общий поток : 3 406 Кбит/сек
Название фильма : Goalkeeper of the galaxy 2020 @ Nikolai.Baranov & PIRATIYA
Дата кодирования : UTC 2020-10-28 07:59:39
Программа кодирования : mkvmerge v51.0.0 ('I Wish') 64-bit
Библиотека кодирования : libebml v1.4.0 + libmatroska v1.6.2
Видео
Идентификатор : 1
Формат : HEVC
Формат/Информация : High Efficiency Video Coding
Профиль формата : Main 10@L5.2@Main
Идентификатор кодека : V_MPEGH/ISO/HEVC
Продолжительность : 1 ч. 58 м.
Битрейт : 3 020 Кбит/сек
Ширина : 1 920 пикселей
Высота : 808 пикселей
Соотношение сторон : 2,40:1
Режим частоты кадров : Постоянный
Частота кадров : 25,000 кадров/сек
Цветовое пространство : YUV
Субдискретизация насыщенности : 4:2:0
Битовая глубина : 10 бит
Бит/(Пиксели*Кадры) : 0.078
Размер потока : 2,50 Гбайт (89%)
Заголовок : Goalkeeper_of_the_galaxy_2020_HEVC_Н265_DD5.1_N.B_HD_1080_Rus
Язык : Russian
Default : Да
Forced : Нет
Цветовой диапазон : Full
Основные цвета : BT.709
Характеристики трансфера : BT.709
Коэффициенты матрицы : BT.709
Аудио
Идентификатор : 2
Формат : AC-3
Формат/Информация : Audio Coding 3
Коммерческое название : Dolby Digital
Идентификатор кодека : A_AC3
Продолжительность : 1 ч. 58 м.
Вид битрейта : Постоянный
Битрейт : 384 Кбит/сек
Каналы : 6 каналов
Channel layout : L R C LFE Ls Rs
Частота : 48,0 КГц
Частота кадров : 31,250 кадров/сек (1536 SPF)
Метод сжатия : С потерями
Размер потока : 325 Мбайт (11%)
Заголовок : Original@DD5.1 AC3 , 384 Kbps, 48.0 KHz, 6 ch
Язык : Russian
Service kind : Complete Main
Default : Да
Forced : Нет
Меню
00:00:00.000 : ru:Глава 01 / ru:Глава 01
--

Скриншоты

---- -- -- ----Релиз от: Nikolai.Baranov & PIRATIYAПоблагодарить:
ЯД: 410017546713876
-- -- -- --Время раздачи : 24/7---

_________________

Легко быть оптимистом, когда судьба не валит с ног тяжелыми ударами, а лишь иногда легонько шлепает по заднице.
[Торрент-статистика]
[Профиль]  [ЛС] 
Показать сообщения:    
Ответить на тему

Текущее время: Сегодня 06:06

Часовой пояс: GMT + 4



Вы не можете начинать темы
Вы не можете отвечать на сообщения
Вы не можете редактировать свои сообщения
Вы не можете удалять свои сообщения
Вы не можете голосовать в опросах
Вы не можете прикреплять файлы к сообщениям
Вы не можете скачивать файлы