Беглец / The Fugitive (Сезон 1 , Серия 1-14 из 14 ) (Стивен Хопкинс) [2020, Боевик, драма, триллер, экранизация,WEB-DL- HEVC 10bit - 1080p] [LostFilm+ Eng]+[Subs ENG]ь

Ответить на тему
 
Автор
Сообщение

Враг Нароода ®

Пол:

Стаж: 2 года 9 месяцев

Сообщений: 218

Репутация: 240 [+] [-]

Откуда: Красногорск

Пост 12-Окт-2020 12:59

[Цитировать] 

-- -- Беглец / The Fugitive (Сезон 1 , Серия 1-14 из 14 ) - Полный Комплект --Год выпуска: 2020
Выпущено: США , 3 Arts Entertainment, Thunder Road, Warner Bros. Television
Жанр: Боевик, драма, триллер, экранизация
Продолжительность: 00:08:00
Сезон:1
Серия:1-14
Количество серий в сезоне: 14--Озвучка 1: Профессиональный многоголосый- LostFilm - Русский
Озвучка #2: Профессиональный многоголосый -Английский - Оригинал--Субтитры (UTF-8): вшитые
#1 - English (SDH) (включены по умолчанию)
#2 - English (Original)--Внешние:
#1 - English (SDH)
#2 - English (Original)
--Релиз Без Рекламы --MDB 5.3 --Режиссеры:
Стивен Хопкинс --В ролях: Кифер Сазерленд, Бойд Холбрук, Дженесис Родригес, Брайан Джерати, Тия Сиркар, Дэниэл Дэвид Стюарт, Энди Бакли, Гленн Хоуертон, Малкольм Гудвин, Натали Мартинес-- Заботливый отец и любящий муж Майк Ферро оказался в во время взрыва в метро Лос-Анджелеса. Из-за неразберихи его обвиняют в теракте, и теперь Майк должен доказать собственную невиновность, пока по его следам идёт знаменитый детектив...-- --Качество : WEB-DLRip - HEVC 10bit - 1080p
Формат: MKV
Видео кодек: H265
Видео: 3649 Кбит/сек,1920х1080 , (16.9),в 23.976кадр/сек, HEVC (Main10@L5.1@Main)--Аудио Кодек:Аудио Кодек:AC3
Аудио #1: MVO LostFilm @ DD5.1 AC3, 640 Kbps, 48.0 KHz, 6 ch - LostFilm - Русский
Аудио #2: Original@DD5.1 AC3, 640 Kbps, 48.0 KHz, 6 ch - English - Оригинал-

Доп. информация:

Звуковая дорожка сделана путем наложения чистого голоса озвучивателей на центральный канал оригинальной дорожки. Качество идентично звуковой дорожке.
--

Список эпизодов сезона


1 сезон 1 серия - Не в том месте, не в то время - Wrong Place, Wrong Time
1 сезон 2 серия - Улыбайтесь, вас снимают - Smile for The Camera
1 сезон 3 серия - Беги! - Run!
1 сезон 4 серия - Уходя в подполье - Going Underground
1 сезон 5 серия - Когда Майк встретил Клэя - When Mike Met Clay
1 сезон 6 серия - Рука помощи - A Lifeline
1 сезон 7 серия - Снова - Again
1 сезон 8 серия - Охота на охотника - Hunted Becomes the Hunter
1 сезон 9 серия - К. Браво, юрист. - C. Bravo, Esq.
1 сезон 10 серия - Собирая все воедино - Getting the Gang Back Together
1 сезон 11 серия - Когда Майк встретил Ронни - When Mike Met Ronnie
1 сезон 12 серия - Смена направления - Changing Direction
1 сезон 13 серия - Когда Майк встретил Колина - When Mike Met Colin
1 сезон 14 серия - Чем все кончилось - How it All Ends
--

MediaInfo

Общее
Уникальный идентификатор : 329053850058804452199470988554248775691 (0xF78D776061ADFD056F7C01212281E80B)
Полное имя : E:\Baranov\Беглец - The Fugitive\The.Fugitive_2020_S01_HEVC_Н265_DD5.1_N.B_HD_1080_LostFilm_Rus_Eng\The.Fugitive_2020_S01E01-E05_HEVC_Н265_DD5.1_N.B_HD_1080_LostFilm_Rus_Eng.mkv
Формат : Matroska
Версия формата : Version 4
Размер файла : 1,35 Гбайт
Продолжительность : 39 м. 12 с.
Общий поток : 4 932 Кбит/сек
Название фильма : The Fugitive 2020 S01E01-E05 @ Nikolai.Baranov & PIRATIYA
Дата кодирования : UTC 2020-10-10 16:15:03
Программа кодирования : mkvmerge v51.0.0 ('I Wish') 64-bit
Библиотека кодирования : libebml v1.4.0 + libmatroska v1.6.2
Видео
Идентификатор : 1
Формат : HEVC
Формат/Информация : High Efficiency Video Coding
Профиль формата : Main 10@L5.1@Main
Идентификатор кодека : V_MPEGH/ISO/HEVC
Продолжительность : 39 м. 12 с.
Битрейт : 3 649 Кбит/сек
Ширина : 1 920 пикселей
Высота : 1 080 пикселей
Соотношение сторон : 16:9
Режим частоты кадров : Постоянный
Частота кадров : 23,976 (24000/1001) кадра/сек
Цветовое пространство : YUV
Субдискретизация насыщенности : 4:2:0
Битовая глубина : 10 бит
Бит/(Пиксели*Кадры) : 0.073
Размер потока : 1 023 Мбайт (74%)
Заголовок : The.Fugitive_2020_S01E01-E05_HEVC_Н265_DD5.1_N.B_HD_1080_LostFilm_Rus_Eng
Язык : Russian
Default : Да
Forced : Нет
Цветовой диапазон : Full
Основные цвета : BT.709
Характеристики трансфера : BT.709
Коэффициенты матрицы : BT.709
Аудио #1
Идентификатор : 4
Формат : AC-3
Формат/Информация : Audio Coding 3
Коммерческое название : Dolby Digital
Идентификатор кодека : A_AC3
Продолжительность : 39 м. 12 с.
Вид битрейта : Постоянный
Битрейт : 640 Кбит/сек
Каналы : 6 каналов
Channel layout : L R C LFE Ls Rs
Частота : 48,0 КГц
Частота кадров : 31,250 кадров/сек (1536 SPF)
Метод сжатия : С потерями
Размер потока : 179 Мбайт (13%)
Заголовок : MVO LostFilm @DD5.1 AC3, 640 Kbps, 48.0 KHz, 6 ch
Язык : Russian
Service kind : Complete Main
Default : Да
Forced : Нет
Аудио #2
Идентификатор : 5
Формат : AC-3
Формат/Информация : Audio Coding 3
Коммерческое название : Dolby Digital
Идентификатор кодека : A_AC3
Продолжительность : 39 м. 12 с.
Вид битрейта : Постоянный
Битрейт : 640 Кбит/сек
Каналы : 6 каналов
Channel layout : L R C LFE Ls Rs
Частота : 48,0 КГц
Частота кадров : 31,250 кадров/сек (1536 SPF)
Метод сжатия : С потерями
Размер потока : 179 Мбайт (13%)
Заголовок : Original@DD5.1 AC3 , 640 Kbps, 48.0 KHz, 6 ch
Язык : English
Service kind : Complete Main
Default : Нет
Forced : Нет
Текст #1
Идентификатор : 2
Формат : UTF-8
Идентификатор кодека : S_TEXT/UTF8
Идентификатор кодека/Информация : UTF-8 Plain Text
Продолжительность : 38 м. 57 с.
Битрейт : 91 бит/сек
Count of elements : 725
Размер потока : 26,2 Кбайт (0%)
Заголовок : Original - SDH
Язык : English
Default : Да
Forced : Нет
Текст #2
Идентификатор : 3
Формат : UTF-8
Идентификатор кодека : S_TEXT/UTF8
Идентификатор кодека/Информация : UTF-8 Plain Text
Продолжительность : 38 м. 54 с.
Битрейт : 89 бит/сек
Count of elements : 695
Размер потока : 25,5 Кбайт (0%)
Заголовок : Original
Язык : English
Default : Нет
Forced : Нет
Меню
00:00:00.000 : ru:Глава 01 / ru:Глава 01 / ru:Глава 01 / ru:Глава 01 / ru:Глава 01
--

Скриншоты

-- --

Как закачать отдельный файл

1. Открыть торрент
2. Снять галки с тех файлов торрента, которые мы не хотим закачивать. Оставляем только на нужных нам файлах (файле).
3. Нажать О.К.
В клиенте utorrent
Инструкция
1) Открыть торрент

2) Снять галки с тех файлов торрента, которые мы не хотим закачивать:
* либо вручную, снимая с каждого файла галку( скрин №1)
* либо, нажав кнопку "Снять метки (Select None)", сняв сразу со всех файлов(скрин №2)
№1

№2

Оставляем только на нужных нам файлах (файле).

3)Нажать О.К
-- -- --Релиз от: Nikolai.Baranov & PIRATIYA . Поблагодарить:
ЯД: 410017546713876
-- -- -- --Время раздачи : 24/7---

_________________

Легко быть оптимистом, когда судьба не валит с ног тяжелыми ударами, а лишь иногда легонько шлепает по заднице.
[Торрент-статистика]
[Профиль]  [ЛС] 
Показать сообщения:    
Ответить на тему

Текущее время: Сегодня 21:15

Часовой пояс: GMT + 4



Вы не можете начинать темы
Вы не можете отвечать на сообщения
Вы не можете редактировать свои сообщения
Вы не можете удалять свои сообщения
Вы не можете голосовать в опросах
Вы не можете прикреплять файлы к сообщениям
Вы не можете скачивать файлы