Пацаны / The Boys (Сезон 2 , Серия 1-5 из 8)) (Филип Сгриккиа, Дэниэл Эттиэс) [2020,Фантастика, боевик, комедия, криминал,WEB-DLRip - HEVC 10bit - 1080p] [NewStudio+LostFilm+AlexFilm+Jaskier+Кубик в Кубе+Eng]+[Subs Rus , ENG]

Ответить на тему
 
Автор
Сообщение

Враг Нароода ®

Пол:

Стаж: 2 года 8 месяцев

Сообщений: 214

Репутация: 234 [+] [-]

Откуда: Красногорск

Пост 13-Сен-2020 17:43

[Цитировать] 

---- -- Пацаны / The Boys (Сезон 2 , Серия 1-5 из 8) -- ----Год выпуска: 2020
Выпущено: США , Amazon Studios, Original Film, Point Grey Pictures, Sony Pictures Television
Жанр: Фантастика, боевик, комедия, криминал
Продолжительность:01:00:00
Сезон:2
Серия:1-5
Количество серий в сезоне: 8--Озвучка #1:Профессиональный многоголосый AlexFilm - (включен по умолчанию)- Русский
Озвучка # 2: Профессиональный многоголосый- LostFilm - Русский
Озвучка # 3: Профессиональный многоголосый- NewStudio - Русский
Озвучка # 4: Профессиональный многоголосый- Jaskier - Русский
Озвучка # 5: Профессиональный многоголосый- Кубик в Кубе - Русский
Озвучка #6: Профессиональный многоголосый -Английский - Оригинал--Субтитры (UTF-8): вшитые
#1 - Русские - Russian (включены по умолчанию)
#2 - Русские- Russian (Forced)
#3 - Русские- English (Original)- (Forced)
#4- Английские - English (SDH)
#5- Английские - English (Original)--Внешние:
#1 - Русские - Russian
#2 - Русские- Russian (Forced)
#3 - Русские- English (Original)- (Forced)
#4- Английские - English (SDH)
#5- Английские - English (Original)
--Релиз Без Рекламы - Ненормативная лексика --MDB 8.7 --Режиссеры:
Филип Сгриккиа, Дэниэл Эттиэс, Эрик Крипке --В ролях: Карл Урбан, Доминик МакЭллигот, Эрин Мориарти, Элизабет Шу, Энтони Старр, Дженнифер Эспозито, Саймон Пегг, Шантель Ван Сантен, Хейли Джоэл Осмент, Чейс Кроуфорд, Нэйтан Митчелл, Джек Куэйд, Джесси Ашер, Билли Зейн, Джим Бивер, Лаз Алонсо, Джанкарло Эспозито, Джимми Фэллон, Тара Рейд, Сет Роген-- Действие сериала разворачивается в мире, где существуют супергерои. Именно они являются настоящими звездами. Их все знают и обожают. Но за идеальным фасадом скрывается гораздо более мрачный мир наркотиков и секса, а большинство героев — в жизни не самые приятные люди. Противостоит им отряд, неофициально известный как «Пацаны».-- --Качество : WEB-DLRip - HEVC 10bit - 1080p
Формат: MKV
Видео кодек: H265
Видео: 2236 Кбит/сек,1920х800 , (2.40.1),в 23.976кадр/сек, HEVC (Main10@L4@Main)--Аудио Кодек:Аудио Кодек:AC3
Аудио #1: MVO AlexFilm @DD5.1 AC3, 384 Kbps, 48.0 KHz, 6 ch- AlexFilm - (включен по умолчанию - Русский
Аудио #2: MVO Jaskier @DD5.1 AC3, 384 Kbps, 48.0 KHz, 6 ch- Jaskier - Русский
Аудио #3: MVO NewStudio @DD5.1 AC3, 640 Kbps, 48.0 KHz, 6 ch - NewStudio - Русский
Аудио #4: MVO LostFilm @DD5.1 AC3, 640 Kbps, 48.0 KHz, 6 ch- LostFilm - Русский
Аудио #5: MVO Кубик в Кубе @DD5.1 AC3, 448 Kbps, 48.0 KHz, 6 ch - Кубик в Кубе - Русский
Аудио #4: Original @DD5.1, E-AC3 ,640 Kbps, 48.0 KHz, 6 ch - English - Оригинал-

Доп. информация:

Звуковая дорожка сделана путем наложения чистого голоса озвучивателей на центральный канал оригинальной дорожки. Качество идентично звуковой дорожке.
--

Список эпизодов сезона


2 сезон 1 серия - Понеслась - The Big Ride
2 сезон 2 серия - Толковая подготовка и планирование -Proper Preparation and Planning
2 сезон 3 серия - Там, за холмом, с тысячей мечей наперевес - Over the Hill with the Swords of a Thousand Men
2 сезон 4 серия - Ничто в мире не сравнится - Nothing Like It in the World
2 сезон 5 серия - Нам уже пора - We Gotta Go Now
--

MediaInfo

Общее
Уникальный идентификатор : 144317224850024229476968738258043825504 (0x6C927C8A259411D4FEA23036F2186D60)
Полное имя : F:\Пацаны - The Boys\The_Boys_2019_S02_HEVC- 10Bit_Н265_DD5.1_N.B_HD_1080_ 5xRus_Eng\The_Boys_2019_S02E01_HEVC- 10Bit_Н265_DD5.1_N.B_HD_1080_ 5xRus_Eng.mkv
Формат : Matroska
Версия формата : Version 4
Размер файла : 2,25 Гбайт
Продолжительность : 1 ч. 2 м.
Общий поток : 5 119 Кбит/сек
Название фильма : The Boys 2019 S02E01 @ Nikolai.Baranov & PIRATIYA
Дата кодирования : UTC 2020-09-12 14:51:41
Программа кодирования : mkvmerge v50.0.0 ('Awakenings') 64-bit
Библиотека кодирования : libebml v1.4.0 + libmatroska v1.6.2
Writing frontend : StaxRip v1.7.0.6
Видео
Идентификатор : 1
Формат : HEVC
Формат/Информация : High Efficiency Video Coding
Профиль формата : Main 10@L4@Main
Идентификатор кодека : V_MPEGH/ISO/HEVC
Продолжительность : 1 ч. 2 м.
Битрейт : 2 236 Кбит/сек
Ширина : 1 920 пикселей
Высота : 800 пикселей
Соотношение сторон : 2,40:1
Режим частоты кадров : Постоянный
Частота кадров : 23,976 (24000/1001) кадра/сек
Цветовое пространство : YUV
Субдискретизация насыщенности : 4:2:0
Битовая глубина : 10 бит
Бит/(Пиксели*Кадры) : 0.061
Размер потока : 1 007 Мбайт (44%)
Заголовок : The_Boys_2019_S02E01_HEVC- 10Bit_Н265_DD5.1_N.B_HD_1080_ 5xRus_Eng
Библиотека кодирования : x265 3.4+1-7b120308dc64:[Windows][MSVC 1926][64 bit] 10bit
Настройки программы : cpuid=1111039 / frame-threads=3 / numa-pools=12 / wpp / no-pmode / no-pme / no-psnr / ssim / log-level=2 / input-csp=1 / input-res=1920x800 / interlace=0 / total-frames=90564 / level-idc=0 / high-tier=1 / uhd-bd=0 / ref=3 / no-allow-non-conformance / no-repeat-headers / annexb / no-aud / no-hrd / info / hash=0 / no-temporal-layers / open-gop / min-keyint=23 / keyint=250 / gop-lookahead=0 / bframes=8 / b-adapt=2 / b-pyramid / bframe-bias=0 / rc-lookahead=80 / lookahead-slices=5 / scenecut=40 / hist-scenecut=0 / radl=0 / no-splice / no-intra-refresh / ctu=64 / min-cu-size=8 / no-rect / no-amp / max-tu-size=32 / tu-inter-depth=1 / tu-intra-depth=1 / limit-tu=0 / rdoq-level=0 / dynamic-rd=0.00 / no-ssim-rd / signhide / no-tskip / nr-intra=0 / nr-inter=0 / no-constrained-intra / no-strong-intra-smoothing / max-merge=5 / limit-refs=1 / no-limit-modes / me=3 / subme=5 / merange=57 / temporal-mvp / no-frame-dup / no-hme / weightp / no-weightb / no-analyze-src-pics / deblock=0:0 / sao / no-sao-non-deblock / rd=3 / selective-sao=4 / early-skip / no-rskip / no-fast-intra / no-tskip-fast / no-cu-lossless / b-intra / no-splitrd-skip / rdpenalty=0 / psy-rd=2.00 / psy-rdoq=0.00 / no-rd-refine / no-lossless / cbqpoffs=0 / crqpoffs=0 / rc=crf / crf=20.0 / qcomp=0.60 / qpstep=4 / stats-write=0 / stats-read=0 / ipratio=1.40 / pbratio=1.30 / aq-mode=3 / aq-strength=1.00 / cutree / zone-count=0 / no-strict-cbr / qg-size=32 / no-rc-grain / qpmax=69 / qpmin=0 / no-const-vbv / sar=0 / overscan=0 / videoformat=5 / range=0 / colorprim=2 / transfer=2 / colormatrix=2 / chromaloc=0 / display-window=0 / cll=0,0 / min-luma=0 / max-luma=1023 / log2-max-poc-lsb=8 / vui-timing-info / vui-hrd-info / slices=1 / no-opt-qp-pps / no-opt-ref-list-length-pps / no-multi-pass-opt-rps / scenecut-bias=0.05 / hist-threshold=0.01 / no-opt-cu-delta-qp / no-aq-motion / no-hdr10 / no-hdr10-opt / no-dhdr10-opt / no-idr-recovery-sei / analysis-reuse-level=0 / analysis-save-reuse-level=0 / analysis-load-reuse-level=0 / scale-factor=0 / refine-intra=0 / refine-inter=0 / refine-mv=1 / refine-ctu-distortion=0 / no-limit-sao / ctu-info=0 / no-lowpass-dct / refine-analysis-type=0 / copy-pic=1 / max-ausize-factor=1.0 / no-dynamic-refine / no-single-sei / no-hevc-aq / no-svt / no-field / qp-adaptation-range=1.00 / no-scenecut-aware-qpconformance-window-offsets / right=0 / bottom=0 / decoder-max-rate=0
Язык : Russian
Default : Да
Forced : Нет
Аудио #1
Идентификатор : 4
Формат : AC-3
Формат/Информация : Audio Coding 3
Коммерческое название : Dolby Digital
Идентификатор кодека : A_AC3
Продолжительность : 1 ч. 2 м.
Вид битрейта : Постоянный
Битрейт : 640 Кбит/сек
Каналы : 6 каналов
Channel layout : L R C LFE Ls Rs
Частота : 48,0 КГц
Частота кадров : 31,250 кадров/сек (1536 SPF)
Метод сжатия : С потерями
Размер потока : 288 Мбайт (13%)
Заголовок : MVO LostFilm @DD5.1 AC3, 640 Kbps, 48.0 KHz, 6 ch
Язык : Russian
Service kind : Complete Main
Default : Нет
Forced : Нет
Аудио #2
Идентификатор : 5
Формат : AC-3
Формат/Информация : Audio Coding 3
Коммерческое название : Dolby Digital
Идентификатор кодека : A_AC3
Продолжительность : 1 ч. 2 м.
Вид битрейта : Постоянный
Битрейт : 384 Кбит/сек
Каналы : 6 каналов
Channel layout : L R C LFE Ls Rs
Частота : 48,0 КГц
Частота кадров : 31,250 кадров/сек (1536 SPF)
Метод сжатия : С потерями
Размер потока : 173 Мбайт (8%)
Заголовок : MVO AlexFilm @DD5.1 AC3, 384 Kbps, 48.0 KHz, 6 ch
Язык : Russian
Service kind : Complete Main
Default : Да
Forced : Нет
Аудио #3
Идентификатор : 6
Формат : AC-3
Формат/Информация : Audio Coding 3
Коммерческое название : Dolby Digital
Идентификатор кодека : A_AC3
Продолжительность : 1 ч. 2 м.
Вид битрейта : Постоянный
Битрейт : 384 Кбит/сек
Каналы : 6 каналов
Channel layout : L R C LFE Ls Rs
Частота : 48,0 КГц
Частота кадров : 31,250 кадров/сек (1536 SPF)
Метод сжатия : С потерями
Размер потока : 173 Мбайт (8%)
Заголовок : MVO NewStudio @DD5.1 AC3, 384 Kbps, 48.0 KHz, 6 ch
Язык : Russian
Service kind : Complete Main
Default : Нет
Forced : Нет
Аудио #4
Идентификатор : 7
Формат : AC-3
Формат/Информация : Audio Coding 3
Коммерческое название : Dolby Digital
Идентификатор кодека : A_AC3
Продолжительность : 1 ч. 2 м.
Вид битрейта : Постоянный
Битрейт : 384 Кбит/сек
Каналы : 6 каналов
Channel layout : L R C LFE Ls Rs
Частота : 48,0 КГц
Частота кадров : 31,250 кадров/сек (1536 SPF)
Метод сжатия : С потерями
Размер потока : 173 Мбайт (8%)
Заголовок : MVO Jaskier @DD5.1 AC3, 384 Kbps, 48.0 KHz, 6 ch
Язык : Russian
Service kind : Complete Main
Default : Нет
Forced : Нет
Аудио #5
Идентификатор : 8
Формат : AC-3
Формат/Информация : Audio Coding 3
Коммерческое название : Dolby Digital
Идентификатор кодека : A_AC3
Продолжительность : 1 ч. 2 м.
Вид битрейта : Постоянный
Битрейт : 448 Кбит/сек
Каналы : 6 каналов
Channel layout : L R C LFE Ls Rs
Частота : 48,0 КГц
Частота кадров : 31,250 кадров/сек (1536 SPF)
Метод сжатия : С потерями
Размер потока : 202 Мбайт (9%)
Заголовок : MVO Кубик в Кубе @DD5.1 AC3, 448 Kbps, 48.0 KHz, 6 ch
Язык : Russian
Service kind : Complete Main
Default : Нет
Forced : Нет
Аудио #6
Идентификатор : 9
Формат : E-AC-3
Формат/Информация : Enhanced AC-3
Коммерческое название : Dolby Digital Plus
Идентификатор кодека : A_EAC3
Продолжительность : 1 ч. 2 м.
Вид битрейта : Постоянный
Битрейт : 640 Кбит/сек
Каналы : 6 каналов
Channel layout : L R C LFE Ls Rs
Частота : 48,0 КГц
Частота кадров : 31,250 кадров/сек (1536 SPF)
Метод сжатия : С потерями
Размер потока : 288 Мбайт (13%)
Заголовок : Original@DD5.1 E-AC3 ,640 Kbps, 48.0 KHz, 6 ch
Язык : English
Service kind : Complete Main
Default : Нет
Forced : Нет
Текст #1
Идентификатор : 2
Формат : UTF-8
Идентификатор кодека : S_TEXT/UTF8
Идентификатор кодека/Информация : UTF-8 Plain Text
Продолжительность : 56 м. 38 с.
Битрейт : 7 бит/сек
Count of elements : 63
Размер потока : 3,10 Кбайт (0%)
Заголовок : Понеслась-Russian-Forced
Язык : Russian
Default : Да
Forced : Нет
Текст #2
Идентификатор : 3
Формат : UTF-8
Идентификатор кодека : S_TEXT/UTF8
Идентификатор кодека/Информация : UTF-8 Plain Text
Продолжительность : 1 ч. 2 м.
Битрейт : 106 бит/сек
Count of elements : 903
Размер потока : 48,7 Кбайт (0%)
Заголовок : Понеслась-Russian
Язык : Russian
Default : Нет
Forced : Нет
Текст #3
Идентификатор : 10
Формат : UTF-8
Идентификатор кодека : S_TEXT/UTF8
Идентификатор кодека/Информация : UTF-8 Plain Text
Продолжительность : 24 с. 608 мс.
Битрейт : 58 бит/сек
Count of elements : 8
Размер потока : 179 байт (0%)
Заголовок : The Big Ride-Eng-Forced
Язык : English
Default : Нет
Forced : Нет
Текст #4
Идентификатор : 11
Формат : UTF-8
Идентификатор кодека : S_TEXT/UTF8
Идентификатор кодека/Информация : UTF-8 Plain Text
Продолжительность : 1 ч. 2 м.
Битрейт : 72 бит/сек
Count of elements : 1164
Размер потока : 33,2 Кбайт (0%)
Заголовок : The Big Ride-Original - SDH
Язык : English
Default : Нет
Forced : Нет
Текст #5
Идентификатор : 12
Формат : UTF-8
Идентификатор кодека : S_TEXT/UTF8
Идентификатор кодека/Информация : UTF-8 Plain Text
Продолжительность : 1 ч. 2 м.
Битрейт : 72 бит/сек
Count of elements : 1148
Размер потока : 33,1 Кбайт (0%)
Заголовок : The Big Ride-Original
Язык : English
Default : Нет
Forced : Нет
Меню
00:00:00.000 : en:Amazon Original
00:00:05.000 : en:Ratings
00:00:15.000 : en:Previously On
00:02:58.000 : en:Collateral damage negotiations
00:06:11.000 : en:A memorial service
00:09:42.000 : en:Post-funeral interview
00:11:30.000 : en:Title Sequence | Hughie in bed
00:11:37.000 : en:Getting ready
00:14:30.000 : en:Secret meetings
00:17:17.000 : en:The Deep has a meltdown
00:18:42.000 : en:Watching TV
00:19:48.000 : en:Team arguments
00:21:20.000 : en:Homelander is in power
00:27:03.000 : en:Making money
00:30:02.000 : en:A new patient
00:31:37.000 : en:Watching the tapes
00:33:43.000 : en:Focus groups
00:35:08.000 : en:A safe space
00:38:19.000 : en:What to do next
00:43:05.000 : en:Black mail
00:46:40.000 : en:New kid on the block
00:48:50.000 : en:CIA meeting
00:51:23.000 : en:Homelander confronts Stan
00:56:07.000 : en:An unexpected visit
00:56:40.000 : en:Lies and deceit
01:00:56.000 : en:End Credits
--

Скриншоты

----
2Сезон
--Внимание! Раздача пополняется по мере выхода новых серий!--

Внимание! Раздача ведётся путём добавления новых серий!

Раздача ведётся путём добавления новых серий; при каждом добавлении создётся новый торрент.
Чтобы начать докачку новой серии, пользователям необходимо сделать следующее:
1. остановить скачивание,
2. удалить старый торрент у себя из клиента (старые серии удалять не надо),
3. скачать новый торрент и запустить его у себя в клиенте вместо старого, при этом указать клиенту путь в старую папку, куда и должно происходить скачивание новых серий.
Ваш клиент при этом должен произвести хеширование (проверку) старой папки (если не производит сам - помогите ему сделать это), и будет докачивать только те серии которых у вас ещё нет. Старые серии при этом не удаляются, а продолжают раздаваться!
Eсли вы уже удалили старые серии, то предотвратить повторную закачку старых серий можно, отжав галочку в соответсвующих местах при запуске нового торрента. По возможности, желательно не удалять старые серии как можно дольше, чтобы релизёр не столько продолжал раздавать старые серии, а смог сконцентрироваться на новых.
Совет для тех, кто не хочет ждать перехеширования:
Создайте ещё одну папку рядом с папкой сериала (рядом, а не в ней!!!). Каждую новую серию после удачной загрузки копируйте в новую папку так чтобы ваша основная папка всегда была пуста. Когда ваш новый торрент предложит вам закачать все файлы, выберете только последнюю. Для сидирования же укажите адрес новой папки.
Как закачать отдельный файл из торрента или докачать ранее пропущенные файлы торрента!

Как закачать отдельный файл

1. Открыть торрент
2. Снять галки с тех файлов торрента, которые мы не хотим закачивать. Оставляем только на нужных нам файлах (файле).
3. Нажать О.К.
В клиенте utorrent
Инструкция
1) Открыть торрент

2) Снять галки с тех файлов торрента, которые мы не хотим закачивать:
* либо вручную, снимая с каждого файла галку( скрин №1)
* либо, нажав кнопку "Снять метки (Select None)", сняв сразу со всех файлов(скрин №2)
№1

№2

Оставляем только на нужных нам файлах (файле).

3)Нажать О.К
-- -- --Внимание!!! 22.09. 2020. РАЗДАЧА ОБНОВЛЕНА. ДОБАВЛЕНА - 5 - СЕРИЯ . ОБНОВИТЕ ТОРЕНТ ФАЙЛ. ПРИЯТНОГО ПРОСМОТРА . Поблагодарить:
ЯД: 410017546713876
--Релиз от: Nikolai.Baranov & PIRATIYA -- -- -- --Время раздачи : 24/7---

_________________

Легко быть оптимистом, когда судьба не валит с ног тяжелыми ударами, а лишь иногда легонько шлепает по заднице.
[Торрент-статистика]
[Профиль]  [ЛС] 
Показать сообщения:    
Ответить на тему

Текущее время: Сегодня 08:44

Часовой пояс: GMT + 4



Вы не можете начинать темы
Вы не можете отвечать на сообщения
Вы не можете редактировать свои сообщения
Вы не можете удалять свои сообщения
Вы не можете голосовать в опросах
Вы не можете прикреплять файлы к сообщениям
Вы не можете скачивать файлы