Призрачная шестёрка / Шестеро вне закона / 6 Underground (Майкл Бэй / Michael Bay) [2019, США, боевик, WEB-DL 2160p HDR] Dub + MVO + Original (Eng) + Sub (Rus, Eng)

Ответить на тему
 
Автор
Сообщение

Волк ®

Пол:

Стаж: 8 лет 10 месяцев

Сообщений: 809

Репутация: 316 [+] [-]

Откуда: Армения

Пост 11-Сен-2020 11:56

[Цитировать] 

Призрачная шестёрка / 6 Underground
--Страна: США
Студия: Bay Films, Skydance Media, Netflix
Жанр: боевик
Год выпуска: 2019
Продолжительность: 02:08:11--Перевод 1: Профессиональный (дублированный) Пифагор по заказу Netflix
Перевод 2: Профессиональный (многоголосый закадровый) Jaskier
Субтитры: русские (forced, full), английские
Оригинальная аудиодорожка: английский--Режиссер: Майкл Бэй / Michael Bay
В ролях: Райан Рейнольдс, Адриа Архона, Мелани Лоран, Бен Харди, Дэйв Франко, Себастьян Роше, Ситара Аттайе, Кори Хоукинс, Мануэль Рульфо, Джеймс Мюррэй--Описание: Инсценировав собственную смерть, сознательный миллиардер начинает новую жизнь — набирает отряд наёмников из разных стран, чтобы бороться со злом в этом мире. Все члены команды получают вместо имён цифры, и их целью становится свержение диктатора и освобождение народа страны Тургистан.--imdb | kinopoisk | Сэмпл--Тип релиза: WEB-DL 2160p [6 Underground 2019 2160p WEB-DL DD+5.1 HDR HEVC]
Контейнер: MKV
Видео: MPEG-H HEVC Video / 15,9 Mbps / 3840x2160 / 24 fps / 16:9 / Main 10 @ Level 5.1 @ High / 4:2:0 / 10 bits / 1000nits / HDR10 / BT.2020
Аудио 1: Russian E-AC3 / 5.1 / 48 kHz / 640 kbps |Dub, Пифагор|
Аудио 2: Russian AC3 / 5.1 / 48 kHz / 640 kbps |MVO, Jaskier|
Аудио 3: English E-AC3+Atmos / 5.1 / 48 kHz / 768 kbps |original|
Формат субтитров: softsub [SRT]

MediaInfo

Код:
Общее
Уникальный идентификатор                 : 324144027411005106321368273234230165796 (0xF3DBDE6E2AB898E116F8E9C29A36C124)
Полное имя                               : D:\UHD\Призрачная шестёрка.2019.WEB-DL.2160p.HDR.mkv
Формат                                   : Matroska
Версия формата                           : Version 4
Размер файла                             : 16,1 Гбайт
Продолжительность                        : 2 ч. 8 м.
Общий поток                              : 17,9 Мбит/сек
Дата кодирования                         : UTC 2020-08-22 05:30:31
Программа кодирования                    : mkvmerge v49.0.0 ('Sick Of Losing Soulmates') 64-bit
Библиотека кодирования                   : libebml v1.4.0 + libmatroska v1.6.1
Attachments                              : poster.jpg
Видео
Идентификатор                            : 1
Формат                                   : HEVC
Формат/Информация                        : High Efficiency Video Coding
Профиль формата                          : Main 10@L5@Main
HDR format                               : SMPTE ST 2086, HDR10 compatible
Идентификатор кодека                     : V_MPEGH/ISO/HEVC
Продолжительность                        : 2 ч. 8 м.
Битрейт                                  : 15,9 Мбит/сек
Ширина                                   : 3 840 пикселей
Высота                                   : 2 160 пикселей
Соотношение сторон                       : 16:9
Режим частоты кадров                     : Постоянный
Частота кадров                           : 23,976 (24000/1001) кадра/сек
Цветовое пространство                    : YUV
Субдискретизация насыщенности            : 4:2:0 (Type 2)
Битовая глубина                          : 10 бит
Бит/(Пиксели*Кадры)                      : 0.080
Размер потока                            : 14,3 Гбайт (89%)
Default                                  : Да
Forced                                   : Нет
Цветовой диапазон                        : Limited
Основные цвета                           : BT.2020
Характеристики трансфера                 : PQ
Коэффициенты матрицы                     : BT.2020 non-constant
Mastering display color primaries        : Display P3
Mastering display luminance              : min: 0.0001 cd/m2, max: 1000 cd/m2
Maximum Content Light Level              : 1477 cd/m2
Maximum Frame-Average Light Level        : 446 cd/m2
Аудио #1
Идентификатор                            : 2
Формат                                   : E-AC-3
Формат/Информация                        : Enhanced AC-3
Коммерческое название                    : Dolby Digital Plus
Идентификатор кодека                     : A_EAC3
Продолжительность                        : 2 ч. 8 м.
Вид битрейта                             : Постоянный
Битрейт                                  : 640 Кбит/сек
Каналы                                   : 6 каналов
Channel layout                           : L R C LFE Ls Rs
Частота                                  : 48,0 КГц
Частота кадров                           : 31,250 кадров/сек (1536 SPF)
Метод сжатия                             : С потерями
Размер потока                            : 590 Мбайт (4%)
Заголовок                                : Dub, Пифагор
Язык                                     : Russian
Service kind                             : Complete Main
Default                                  : Да
Forced                                   : Нет
Аудио #2
Идентификатор                            : 3
Формат                                   : AC-3
Формат/Информация                        : Audio Coding 3
Коммерческое название                    : Dolby Digital
Идентификатор кодека                     : A_AC3
Продолжительность                        : 2 ч. 8 м.
Вид битрейта                             : Постоянный
Битрейт                                  : 640 Кбит/сек
Каналы                                   : 6 каналов
Channel layout                           : L R C LFE Ls Rs
Частота                                  : 48,0 КГц
Частота кадров                           : 31,250 кадров/сек (1536 SPF)
Метод сжатия                             : С потерями
Размер потока                            : 590 Мбайт (4%)
Заголовок                                : MVO, Jaskier
Язык                                     : Russian
Service kind                             : Complete Main
Default                                  : Нет
Forced                                   : Нет
Аудио #3
Идентификатор                            : 4
Формат                                   : E-AC-3 JOC
Формат/Информация                        : Enhanced AC-3 with Joint Object Coding
Коммерческое название                    : Dolby Digital Plus with Dolby Atmos
Идентификатор кодека                     : A_EAC3
Продолжительность                        : 2 ч. 8 м.
Вид битрейта                             : Постоянный
Битрейт                                  : 768 Кбит/сек
Каналы                                   : 6 каналов
Channel layout                           : L R C LFE Ls Rs
Частота                                  : 48,0 КГц
Частота кадров                           : 31,250 кадров/сек (1536 SPF)
Метод сжатия                             : С потерями
Размер потока                            : 708 Мбайт (4%)
Язык                                     : English
Service kind                             : Complete Main
Default                                  : Нет
Forced                                   : Нет
Complexity index                         : 16
Number of dynamic objects                : 15
Bed channel count                        : 1 канал
Bed channel configuration                : LFE
Текст #1
Идентификатор                            : 5
Формат                                   : UTF-8
Идентификатор кодека                     : S_TEXT/UTF8
Идентификатор кодека/Информация          : UTF-8 Plain Text
Продолжительность                        : 2 ч. 4 м.
Битрейт                                  : 2 бит/сек
Count of elements                        : 67
Размер потока                            : 2,36 Кбайт (0%)
Заголовок                                : forced
Язык                                     : Russian
Default                                  : Да
Forced                                   : Нет
Текст #2
Идентификатор                            : 6
Формат                                   : UTF-8
Идентификатор кодека                     : S_TEXT/UTF8
Идентификатор кодека/Информация          : UTF-8 Plain Text
Продолжительность                        : 2 ч. 7 м.
Битрейт                                  : 83 бит/сек
Count of elements                        : 1644
Размер потока                            : 78,0 Кбайт (0%)
Заголовок                                : full
Язык                                     : Russian
Default                                  : Нет
Forced                                   : Нет
Текст #3
Идентификатор                            : 7
Формат                                   : UTF-8
Идентификатор кодека                     : S_TEXT/UTF8
Идентификатор кодека/Информация          : UTF-8 Plain Text
Продолжительность                        : 2 ч. 6 м.
Битрейт                                  : 66 бит/сек
Count of elements                        : 1890
Размер потока                            : 61,4 Кбайт (0%)
Заголовок                                : full
Язык                                     : English
Default                                  : Нет
Forced                                   : Нет
Текст #4
Идентификатор                            : 8
Формат                                   : UTF-8
Идентификатор кодека                     : S_TEXT/UTF8
Идентификатор кодека/Информация          : UTF-8 Plain Text
Продолжительность                        : 2 ч. 6 м.
Битрейт                                  : 73 бит/сек
Count of elements                        : 2192
Размер потока                            : 68,3 Кбайт (0%)
Заголовок                                : SDH
Язык                                     : English
Default                                  : Нет
Forced                                   : Нет

Скриншоты



_________________
Мои раздачи
[Торрент-статистика]
[Профиль]  [ЛС] 
Показать сообщения:    
Ответить на тему

Текущее время: Сегодня 01:56

Часовой пояс: GMT + 4



Вы не можете начинать темы
Вы не можете отвечать на сообщения
Вы не можете редактировать свои сообщения
Вы не можете удалять свои сообщения
Вы не можете голосовать в опросах
Вы не можете прикреплять файлы к сообщениям
Вы не можете скачивать файлы