Шерлок Холмс / Sherlock Holmes (Гай Ричи / Guy Ritchie) [2009, США, Германия, Великобритания, боевик, приключения, триллер, драма, комедия, криминал, детектив, UHD BDRemux 2160p] Dub + DVO + 3x AVO + VO + Sub Rus, Eng + Original Eng

Ответить на тему
 
Автор
Сообщение

Волк ®

Пол:

Стаж: 8 лет 10 месяцев

Сообщений: 809

Репутация: 316 [+] [-]

Откуда: Армения

Пост 11-Сен-2020 11:53

[Цитировать] 

Шерлок Холмс / Sherlock Holmes- Страна: США, Германия, Великобритания
Жанр: боевик, приключения, триллер, драма, комедия, криминал, детектив
Год выпуска: 2009
Продолжительность: 02:08:30-Перевод 1: Профессиональный (дублированный) BD CEE
Перевод 2: Профессиональный (двухголосый закадровый) BBC Saint-Petersbur
Перевод 3: Авторский (одноголосый закадровый) Ю. Сербин
Перевод 4: Одноголосый закадровый А. Киреев
Перевод 5: Авторский (одноголосый закадровый) А. Гаврилов
Перевод 6: Авторский (одноголосый закадровый) Д. Пучков
Субтитры: русские, английский
Оригинальная аудиодорожка: английский-Режиссер: Гай Ричи / Guy Ritchie-В ролях: Роберт Дауни мл., Джуд Лоу, Рэйчел МакАдамс, Марк Стронг, Эдди Марсан, Роберт Мэйллет, Джеральдин Джеймс, Келли Райлли, Уильям Хьюстон, Ханс Мэтисон, Джеймс Фокс, Уильям Хоуп, Клайв Расселл, Оран Гурел, Дэвид Гаррик, Кайли Хатчинсон, Эндрю Брук, Том Уотт, Джон Кирни-Описание: Величайший в истории сыщик Шерлок Холмс вместе со своим верным соратником Ватсоном вступают в схватку, требующую нешуточной физической и умственной подготовки, ведь их враг представляет угрозу для всего Лондона.imdb | kinopoisk-Тип релиза: UHD BDRemux 2160p
Контейнер: MKV-Видео: 3840х2160p (16:9), 23,976 fps, MPEG-H HEVC (x265), High@L5.1 ~ 54913 kbps, 0.276 bit/pixel, HDR10-Аудио 1: Russian: 48 kHz, AC3, 3/2 (L,C,R,l,r) + LFE ch, ~448 kbps avg / 16-bit | BD CEE
Аудио 2: Russian: 48 kHz/24-bit, DTS-HD MA 5.1 , ~3970 kbps avg (DTS Core: 5.1 / 48 kHz / 1509 kbps / 24-bit) | BBC Saint-Petersbur
Аудио 3: Russian: 48 kHz/24-bit, DTS-HD MA 5.1 , ~3965 kbps avg (DTS Core: 5.1 / 48 kHz / 1509 kbps / 24-bit) | Ю. Сербин
Аудио 4: Russian: 48 kHz/24-bit, DTS-HD MA 5.1 , ~4007 kbps avg (DTS Core: 5.1 / 48 kHz / 1509 kbps / 24-bit) | А. Киреев
Аудио 5: Russian: 48 kHz, DTS, 3/2 (L,C,R,l,r) + LFE ch, ~755 kbps avg / 24-bit | А. Гаврилов
Аудио 6: Russian: 48 kHz, AC3, 2/0 (L,R) + ch, ~192 kbps avg / 16-bit | Д. Пучков
Аудио 7: English: 48 kHz/24-bit, DTS-HD MA 7.1 , ~3979 kbps avg (DTS Core: 5.1 / 48 kHz / 1509 kbps / 24-bit)
-

MediaInfo

Общее
Уникальный идентификатор : 277960744088568760888516727754658718827 (0xD11D4AC3296DAC8115A022883BE4A46B)
Полное имя : D:\Sherlock.Holmes.2009.HDR.Remux.2160p.mkv
Формат : Matroska
Версия формата : Version 4 / Version 2
Размер файла : 64,8 Гбайт
Продолжительность : 2 ч. 8 м.
Общий поток : 72,2 Мбит/сек
Дата кодирования : UTC 2020-08-31 16:11:10
Программа кодирования : mkvmerge v37.0.0 ('Leave It') 64-bit
Библиотека кодирования : libebml v1.3.9 + libmatroska v1.5.2
Видео
Идентификатор : 1
Формат : HEVC
Формат/Информация : High Efficiency Video Coding
Профиль формата : Main 10@L5.1@High
Идентификатор кодека : V_MPEGH/ISO/HEVC
Продолжительность : 2 ч. 8 м.
Битрейт : 54,9 Мбит/сек
Ширина : 3840 пикселей
Высота : 2160 пикселей
Соотношение сторон : 16:9
Режим частоты кадров : Постоянный
Частота кадров : 23,976 (24000/1001) кадра/сек
Цветовое пространство : YUV
Субдискретизация насыщенности : 4:2:0 (Type 2)
Битовая глубина : 10 бит
Бит/(Пиксели*Кадры) : 0.276
Размер потока : 49,3 Гбайт (76%)
Библиотека кодирования : ATEME Titan File 3.9.0 (4.9.0.0)
Язык : English
Default : Да
Forced : Нет
Цветовой диапазон : Limited
Основные цвета : BT.2020
Характеристики трансфера : SMPTE ST 2084
Коэффициенты матрицы : BT.2020 non-constant
MasteringDisplay_ColorPrimaries : R: x=0.680000 y=0.320000, G: x=0.265000 y=0.690000, B: x=0.150000 y=0.060000, White point: x=0.312700 y=0.329000
MasteringDisplay_Luminance : min: 0.0050 cd/m2, max: 4000.0000 cd/m2
MaxCLL : 343 cd/m2
MaxFALL : 106 cd/m2
Аудио #1
Идентификатор : 2
Формат : AC-3
Формат/Информация : Audio Coding 3
Параметр Endianness формата : Big
Идентификатор кодека : A_AC3
Продолжительность : 2 ч. 8 м.
Вид битрейта : Постоянный
Битрейт : 448 Кбит/сек
Каналы : 6 каналов
Расположение каналов : Front: L C R, Side: L R, LFE
Частота : 48,0 КГц
Частота кадров : 31,250 кадров/сек (1536 SPF)
Битовая глубина : 16 бит
Метод сжатия : С потерями
Размер потока : 412 Мбайт (1%)
Заголовок : DUB
Язык : Russian
ServiceKind/String : Complete Main
Default : Да
Forced : Нет
Аудио #2
Идентификатор : 3
Формат : DTS
Формат/Информация : Digital Theater Systems
Профиль формата : MA / Core
Режим : 16
Параметр Endianness формата : Big
Идентификатор кодека : A_DTS
Продолжительность : 2 ч. 8 м.
Вид битрейта : Переменный / Постоянный
Битрейт : 3970 Кбит/сек / 1509 Кбит/сек
Каналы : 6 каналов
Расположение каналов : Front: L C R, Side: L R, LFE
Частота : 48,0 КГц
Частота кадров : 93,750 кадра/сек (512 SPF)
Битовая глубина : 24 бит
Метод сжатия : Без потерь / Lossy
Размер потока : 3,56 Гбайт (5%)
Заголовок : DVO (B S. Petersburg)
Язык : Russian
Default : Нет
Forced : Нет
Аудио #3
Идентификатор : 4
Формат : DTS
Формат/Информация : Digital Theater Systems
Профиль формата : MA / Core
Режим : 16
Параметр Endianness формата : Big
Идентификатор кодека : A_DTS
Продолжительность : 2 ч. 8 м.
Вид битрейта : Переменный / Постоянный
Битрейт : 3965 Кбит/сек / 1509 Кбит/сек
Каналы : 6 каналов
Расположение каналов : Front: L C R, Side: L R, LFE
Частота : 48,0 КГц
Частота кадров : 93,750 кадра/сек (512 SPF)
Битовая глубина : 24 бит
Метод сжатия : Без потерь / Lossy
Размер потока : 3,56 Гбайт (5%)
Заголовок : AVO (Serbin)
Язык : Russian
Default : Нет
Forced : Нет
Аудио #4
Идентификатор : 5
Формат : DTS
Формат/Информация : Digital Theater Systems
Профиль формата : MA / Core
Режим : 16
Параметр Endianness формата : Big
Идентификатор кодека : A_DTS
Продолжительность : 2 ч. 8 м.
Вид битрейта : Переменный / Постоянный
Битрейт : 4007 Кбит/сек / 1509 Кбит/сек
Каналы : 6 каналов
Расположение каналов : Front: L C R, Side: L R, LFE
Частота : 48,0 КГц
Частота кадров : 93,750 кадра/сек (512 SPF)
Битовая глубина : 24 бит
Метод сжатия : Без потерь / Lossy
Размер потока : 3,60 Гбайт (6%)
Заголовок : VO (Kireev)
Язык : Russian
Default : Нет
Forced : Нет
Аудио #5
Идентификатор : 6
Формат : DTS
Формат/Информация : Digital Theater Systems
Режим : 16
Параметр Endianness формата : Big
Идентификатор кодека : A_DTS
Продолжительность : 2 ч. 8 м.
Вид битрейта : Постоянный
Битрейт : 755 Кбит/сек
Каналы : 6 каналов
Расположение каналов : Front: L C R, Side: L R, LFE
Частота : 48,0 КГц
Частота кадров : 93,750 кадра/сек (512 SPF)
Битовая глубина : 24 бит
Метод сжатия : С потерями
Размер потока : 693 Мбайт (1%)
Заголовок : AVO (Gavrilov)
Язык : Russian
Default : Нет
Forced : Нет
Аудио #6
Идентификатор : 7
Формат : AC-3
Формат/Информация : Audio Coding 3
Параметр Endianness формата : Big
Идентификатор кодека : A_AC3
Продолжительность : 2 ч. 8 м.
Вид битрейта : Постоянный
Битрейт : 192 Кбит/сек
Каналы : 2 канала
Расположение каналов : Front: L R
Частота : 48,0 КГц
Частота кадров : 31,250 кадров/сек (1536 SPF)
Битовая глубина : 16 бит
Метод сжатия : С потерями
Размер потока : 176 Мбайт (0%)
Заголовок : AVO (Goblin)
Язык : Russian
ServiceKind/String : Complete Main
Default : Нет
Forced : Нет
Аудио #7
Идентификатор : 8
Формат : DTS
Формат/Информация : Digital Theater Systems
Профиль формата : MA / Core
Режим : 16
Параметр Endianness формата : Big
Идентификатор кодека : A_DTS
Продолжительность : 2 ч. 8 м.
Вид битрейта : Переменный / Постоянный
Битрейт : 3979 Кбит/сек / 1509 Кбит/сек
Каналы : 6 каналов
Расположение каналов : Front: L C R, Side: L R, LFE
Частота : 48,0 КГц
Частота кадров : 93,750 кадра/сек (512 SPF)
Битовая глубина : 24 бит
Метод сжатия : Без потерь / Lossy
Размер потока : 3,57 Гбайт (6%)
Заголовок : Original
Язык : English
Default : Нет
Forced : Нет
Текст #1
Идентификатор : 9
Формат : UTF-8
Идентификатор кодека : S_TEXT/UTF8
Идентификатор кодека/Информация : UTF-8 Plain Text
Продолжительность : 1 ч. 54 м.
Битрейт : 1 бит/сек
ElementCount : 35
Размер потока : 1,54 Кбайт (0%)
Заголовок : Forced
Язык : Russian
Default : Да
Forced : Нет
Текст #2
Идентификатор : 10
Формат : UTF-8
Идентификатор кодека : S_TEXT/UTF8
Идентификатор кодека/Информация : UTF-8 Plain Text
Продолжительность : 2 ч. 6 м.
Битрейт : 90 бит/сек
ElementCount : 1448
Размер потока : 84,1 Кбайт (0%)
Заголовок : Full (R5)
Язык : Russian
Default : Нет
Forced : Нет
Текст #3
Идентификатор : 11
Формат : UTF-8
Идентификатор кодека : S_TEXT/UTF8
Идентификатор кодека/Информация : UTF-8 Plain Text
Продолжительность : 2 ч. 1 м.
Битрейт : 101 бит/сек
ElementCount : 1385
Размер потока : 90,7 Кбайт (0%)
Заголовок : Full (Voronine)
Язык : Russian
Default : Нет
Forced : Нет
Текст #4
Идентификатор : 12
Формат : UTF-8
Идентификатор кодека : S_TEXT/UTF8
Идентификатор кодека/Информация : UTF-8 Plain Text
Продолжительность : 2 ч. 1 м.
Битрейт : 123 бит/сек
ElementCount : 1385
Размер потока : 110 Кбайт (0%)
Заголовок : SDH Colored (Voronine)
Язык : Russian
Default : Нет
Forced : Нет
Текст #5
Идентификатор : 13
Формат : UTF-8
Идентификатор кодека : S_TEXT/UTF8
Идентификатор кодека/Информация : UTF-8 Plain Text
Продолжительность : 1 ч. 58 м.
Битрейт : 57 бит/сек
ElementCount : 1409
Размер потока : 50,2 Кбайт (0%)
Заголовок : Full
Язык : English
Default : Нет
Forced : Нет
Текст #6
Идентификатор : 14
Формат : UTF-8
Идентификатор кодека : S_TEXT/UTF8
Идентификатор кодека/Информация : UTF-8 Plain Text
Продолжительность : 2 ч. 0 м.
Битрейт : 59 бит/сек
ElementCount : 1503
Размер потока : 52,8 Кбайт (0%)
Заголовок : SDH
Язык : English
Default : Нет
Forced : Нет
Меню
00:00:00.000 : en:Catching A Killer
00:06:51.161 : en:Case Of Stagnation
00:11:34.819 : en:Telling About Mary
00:15:46.279 : en:Blow By Blow
00:19:13.486 : en:Last Request
00:23:33.662 : en:Bound Together
00:27:54.464 : en:Miss Adler For Hire
00:32:05.841 : en:The Irene I Know
00:37:13.106 : en:Resurrection
00:40:54.994 : en:Apt Prediction
00:44:41.804 : en:Sorcery And Science
00:47:44.278 : en:Meat Or Potatoes?
00:50:56.762 : en:Giving Up The Ship
00:55:22.194 : en:Friends In High Places
00:59:09.045 : en:Blackwood's Lineage
01:03:09.369 : en:Mutual Danger
01:06:12.635 : en:Dead And Bath
01:11:18.774 : en:Remake The World
01:14:43.938 : en:On Purpose
01:17:40.906 : en:Lambs To Slaughter
01:23:39.681 : en:Trap For Three
01:26:11.541 : en:The Best You Can Do
01:31:01.748 : en:Next Target
01:35:19.964 : en:Smoking Out A Coward
01:39:50.568 : en:Countdown To Noon
01:44:25.342 : en:Bell And Death Tolls
01:48:26.542 : en:Cutting A Conjurer Loose
01:54:07.299 : en:My Weak Spot
01:56:12.090 : en:Moriarty's Mark
02:00:30.807 : en:End Credits

Скриншоты


_________________
Мои раздачи
[Торрент-статистика]
[Профиль]  [ЛС] 
Показать сообщения:    
Ответить на тему

Текущее время: Сегодня 08:18

Часовой пояс: GMT + 4



Вы не можете начинать темы
Вы не можете отвечать на сообщения
Вы не можете редактировать свои сообщения
Вы не можете удалять свои сообщения
Вы не можете голосовать в опросах
Вы не можете прикреплять файлы к сообщениям
Вы не можете скачивать файлы