Страйк / Strike (Сезон 1-3, Серия 1-11 из 11) (Майкл Кейллор, Кирон Хоукс) [2017-2020,детектив, экранизация,WEB-DLRip 1080p] [LostFilm+Eng]+[Subs ENG]

Ответить на тему
 
Автор
Сообщение

Враг Нароода ®

Пол:

Стаж: 2 года 8 месяцев

Сообщений: 213

Репутация: 234 [+] [-]

Откуда: Красногорск

Пост 18-Авг-2020 20:22

[Цитировать] 

---- -- Страйк / Strike - (Сезон 1-3, Серия 1-11 из 11) - Полный Комплект --Год выпуска: 2017-2020
Выпущено: Великобритания, BBC One, BBC Television Centre, Bronte Film and TV
Жанр: Триллер, драма, криминал, детектив, экранизация
Продолжительность: 00:59:00
Сезон:1-3
Серия:1-11
Количество серий в сезоне:11--Озвучка 1: Профессиональный многоголосый - LostFilm- Русский
Озвучка #2: Профессиональный многоголосый -Английский - Оригинал--Субтитры (UTF-8): вшитые
#1 - English (SDH) (включены по умолчанию)
#2 - English (Original)--Внешние:
#1 - English (SDH)
#2 - English (Original)
--Релиз Без Рекламы --MDB 7.9 --Режиссеры:
Майкл Кейллор, Кирон Хоукс, Чарльз Старридж--В ролях: Том Бёрк, Холлидей Грейнджер, Керр Логан, Киллиан Скотт, Йен Кейр Аттард, Кэйтлин Иннес Эдвардс, Лео Билл, Бен Кромптон, Аделл Леонс-- Частный детектив, ветеран войны Корморан Страйк, расследует загадочную смерть модели Лулы Лэндри, упавшей с балкона. Все считают, что Лула закончила жизнь самоубийством, но её брат сомневается в этом и нанимает Страйка, чтобы разобраться в ситуации. Однако Страйк скептически относится к делу. Узнав об очевидности самоубийства Лулы и широком освещении дела в СМИ, он поначалу не хочет браться за его расследование, но это единственная возможность для Страйка немного подзаработать, и в конце концов, он соглашается. Ему помогает Робин Эллакотт, откликнувшаяся на объявление о поиске временной помощницы и втайне всегда мечтавшая о детективной работе.-- --Качество : -WEB-DLRip - HEVC - 1080p.
Формат: MKV
Видео кодек: H265
Видео: 4139 Кбит/сек,1920х1080(16.9),в 23.976кадр/сек, HEVC (Main@L4@Main)--Аудио Кодек:AC3
Аудио #1: MVO LostFilm @DD5.1 AC3, 640 Kbps, 48.0 KHz, 6 ch- LostFilm -Русский
Аудио #2: Original@DD5.1 E-AC3 , 640 Kbps, 48.0 KHz, 6 ch - English - Оригинал--

Доп. информация:

Звуковая дорожка сделана путем наложения чистого голоса озвучивателей на центральный канал оригинальной дорожки. Качество идентично звуковой дорожке.
--

Список эпизодов сезона


1 сезон 1 серия - Зов кукушки. Часть первая - The Cuckoo's Calling (1)
1 сезон 2 серия - Зов кукушки. Часть вторая - The Cuckoo's Calling (2)
1 сезон 3 серия - Зов кукушки. Часть третья - The Cuckoo's Calling (3)
1 сезон 4 серия - Шелкопряд. Часть первая - The Silkworm (1)
1 сезон 5 серия - Шелкопряд. Часть вторая - The Silkworm (2)

2 сезон 1 серия - На службе зла. Часть первая- Career of Evil: Part 1
2 сезон 2 серия - На службе зла. Часть вторая - Career of Evil: Part 2


3 сезон 1 серия - Смертельная белизна. Часть первая - Lethal White: Part 1
3 сезон 2 серия - Смертельная белизна, часть вторая - Lethal White: Part 2
3 сезон 3 серия - Смертельная белизна. Часть третья - Lethal White: Part 3
3 сезон 4 серия - Смертельная белизна. Часть четвертая - Lethal White: Part 4
--

MediaInfo

Общее
Уникальный идентификатор : 185665402819304104341658016885902211005 (0x8BADDB1BC7B899B8508A5AFB659CF7BD)
Полное имя : F:\Nikolai.Baranov & PIRATIYA\Страйк - Strike\Strike_2018_S01_HEVC_Н265_DD5.1_N.B_HD_1080_LostFilm_Rus_Eng\Strike_S01E01_HEVC_Н265_DD5.1_N.B_HD_1080_LostFilm_Rus_Eng.mkv
Формат : Matroska
Версия формата : Version 4
Размер файла : 2,27 Гбайт
Продолжительность : 1 ч. 0 м.
Общий поток : 5 421 Кбит/сек
Название фильма : Strike 2018 S01E01 @ Nikolai.Baranov & PIRATIYA
Дата кодирования : UTC 2020-08-17 11:13:12
Программа кодирования : mkvmerge v49.0.0 ('Sick Of Losing Soulmates') 64-bit
Библиотека кодирования : libebml v1.4.0 + libmatroska v1.6.1
Видео
Идентификатор : 1
Формат : HEVC
Формат/Информация : High Efficiency Video Coding
Профиль формата : Main@L4@Main
Идентификатор кодека : V_MPEGH/ISO/HEVC
Продолжительность : 1 ч. 0 м.
Битрейт : 4 139 Кбит/сек
Ширина : 1 920 пикселей
Высота : 1 080 пикселей
Соотношение сторон : 16:9
Режим частоты кадров : Постоянный
Частота кадров : 23,976 (24000/1001) кадра/сек
Цветовое пространство : YUV
Субдискретизация насыщенности : 4:2:0
Битовая глубина : 8 бит
Бит/(Пиксели*Кадры) : 0.083
Размер потока : 1,73 Гбайт (76%)
Заголовок : Strike_S01E01_HEVC_Н265_DD5.1_N.B_HD_1080_LostFilm_Rus_Eng
Язык : Russian
Default : Да
Forced : Нет
Цветовой диапазон : Full
Основные цвета : BT.709
Характеристики трансфера : BT.709
Коэффициенты матрицы : BT.709
Аудио #1
Идентификатор : 2
Формат : AC-3
Формат/Информация : Audio Coding 3
Коммерческое название : Dolby Digital
Идентификатор кодека : A_AC3
Продолжительность : 59 м. 59 с.
Вид битрейта : Постоянный
Битрейт : 640 Кбит/сек
Каналы : 6 каналов
Channel layout : L R C LFE Ls Rs
Частота : 48,0 КГц
Частота кадров : 31,250 кадров/сек (1536 SPF)
Метод сжатия : С потерями
Размер потока : 275 Мбайт (12%)
Заголовок : MVO LostFilm @DD5.1 AC3, 640 Kbps, 48.0 KHz, 6 ch
Язык : Russian
Service kind : Complete Main
Default : Да
Forced : Нет
Аудио #2
Идентификатор : 3
Формат : E-AC-3
Формат/Информация : Enhanced AC-3
Коммерческое название : Dolby Digital Plus
Идентификатор кодека : A_EAC3
Продолжительность : 59 м. 59 с.
Вид битрейта : Постоянный
Битрейт : 640 Кбит/сек
Каналы : 6 каналов
Channel layout : L R C LFE Ls Rs
Частота : 48,0 КГц
Частота кадров : 31,250 кадров/сек (1536 SPF)
Метод сжатия : С потерями
Задержка видео : 16 мс.
Размер потока : 275 Мбайт (12%)
Заголовок : Original@DD5.1 E-AC3 , 640 Kbps, 48.0 KHz, 6 ch
Язык : English
Service kind : Complete Main
Default : Нет
Forced : Нет
Текст #1
Идентификатор : 4
Формат : UTF-8
Идентификатор кодека : S_TEXT/UTF8
Идентификатор кодека/Информация : UTF-8 Plain Text
Продолжительность : 59 м. 27 с.
Битрейт : 56 бит/сек
Count of elements : 901
Размер потока : 24,5 Кбайт (0%)
Заголовок : The Cuckoo's Calling Part 1-Original - SDH
Язык : English
Default : Да
Forced : Нет
Текст #2
Идентификатор : 5
Формат : UTF-8
Идентификатор кодека : S_TEXT/UTF8
Идентификатор кодека/Информация : UTF-8 Plain Text
Продолжительность : 58 м. 44 с.
Битрейт : 47 бит/сек
Count of elements : 710
Размер потока : 20,5 Кбайт (0%)
Заголовок : Зов кукушки. Часть первая-Original
Язык : English
Default : Нет
Forced : Нет
Меню
00:00:00.000 : ru:Глава 01 / ru:Глава 01 / ru:Глава 01 / ru:Глава 01 / ru:Глава 01
--

Скриншоты

-- 1-сезон.-- 2-сезон.-- 3-сезон.--

Как закачать отдельный файл

1. Открыть торрент
2. Снять галки с тех файлов торрента, которые мы не хотим закачивать. Оставляем только на нужных нам файлах (файле).
3. Нажать О.К.
В клиенте utorrent
Инструкция
1) Открыть торрент

2) Снять галки с тех файлов торрента, которые мы не хотим закачивать:
* либо вручную, снимая с каждого файла галку( скрин №1)
* либо, нажав кнопку "Снять метки (Select None)", сняв сразу со всех файлов(скрин №2)
№1

№2

Оставляем только на нужных нам файлах (файле).

3)Нажать О.К
-- -- --Внимание!!! 17.09. 2020. РАЗДАЧА ОБНОВЛЕНА. ДОБАВЛЕНА - 4 - СЕРИЯ 3 СЕЗОНА ФИНАЛ СЕЗОНА . ОБНОВИТЕ ТОРЕНТ ФАЙЛ. ПРИЯТНОГО ПРОСМОТРА . Поблагодарить:
ЯД: 410017546713876
--Релиз от: Nikolai.Baranov & PIRATIYA -- -- -- --Время раздачи : 24/7---

_________________

Легко быть оптимистом, когда судьба не валит с ног тяжелыми ударами, а лишь иногда легонько шлепает по заднице.
[Торрент-статистика]
[Профиль]  [ЛС] 
Показать сообщения:    
Ответить на тему

Текущее время: Сегодня 01:32

Часовой пояс: GMT + 4



Вы не можете начинать темы
Вы не можете отвечать на сообщения
Вы не можете редактировать свои сообщения
Вы не можете удалять свои сообщения
Вы не можете голосовать в опросах
Вы не можете прикреплять файлы к сообщениям
Вы не можете скачивать файлы