50 штатов страха /50 States of Fright (Сезон 1-2, Серия 1- 24 из 24) (Скотт Бек, Ли Кронин) [2020,Ужасы, драма,WEB-DLRip 1080p] [LostFilm+Eng]+[Subs ENG]

Ответить на тему
 
Автор
Сообщение

Враг Нароода ®

Пол:

Стаж: 2 года 10 месяцев

Сообщений: 221

Репутация: 252 [+] [-]

Откуда: Красногорск

Пост 06-Июл-2020 17:21

[Цитировать] 

---- ---- 50 штатов страха /50 States of Fright (Сезон 1-2, Серия 1- 24 из 24) - Полный Комплект --Год выпуска: 2020
Выпущено: США , DiGa Studios, Gunpowder & Sky
Жанр:Ужасы, драма
Продолжительность: 00:08:00
Сезон:1-2
Серия:1- 24
Количество серий в сезоне: 24--Озвучка #1: Профессиональный многоголосый - LostFilm - Русский
Озвучка #2: Профессиональный многоголосый -Английский - Оригинал
Субтитры: English (SDH)
--Релиз Без Рекламы --IMDb 6.5 --Режиссеры:
Скотт Бек, Ли Кронин, Брайан Нетто--В ролях: Таисса Фармига, Лулу Уилсон, Рон Ливингстон, Кристофер Хейердал, Рэйчел Броснахэн, Эйса Баттерфилд, Карен Аллен, Алекс Фитцалан, Рори Калкин, Трэвис Фиммел, Минг-На--
50 штатов страха, американский сериал-антология в жанре хоррор. Каждый эпизод сериала расскажет десятиминутную страшную историю, основанную на городских легендах США, мифах различных штатов — от Колорадо и Флориды до Орегона и Вашингтона..-- --Качество : WEB-DLRip 1080p - Сезон 1-2
Формат: MKV
Видео кодек: H264
Видео: 16971Кбит/сек,1920х1080(16.9),в 23.976кадр/сек,AVC (High@L4.1)(CABAC/4 Ref Frames)--Аудио Кодек:AC3
Аудио #1: MVO LostFilm @ DD5.1 AC3, 384 Kbps, 48.0 KHz, 6 ch - LostFilm - Русский
Аудио #2: Original@DD5.1 AC3 , 384 Kbps, 48.0 KHz, 6 ch - English - Оригинал
--

Доп. информация:

Звуковая дорожка сделана путем наложения чистого голоса озвучивателей на центральный канал оригинальной дорожки. Качество идентично звуковой дорожке.
--

Список эпизодов сезона

Сезон 1
1 сезон 1 серия - Золотая рука (Мичиган) - Часть 1 - The Golden Arm (Michigan) - Part 1
1 сезон 2 серия - Золотая рука (Мичиган) - Часть 2 The Golden Arm (Michigan) - Part 2
1 сезон 3 серия - Золотая рука (Мичиган) - Часть 3 - The Golden Arm (Michigan) - Part 3
1 сезон 4 серия - Крупнейший в Америке моток бечевки (Канзас) - Часть 1 - Ball of Twine (Kansas) - Part 1
1 сезон 5 серия - Крупнейший в Америке моток бечевки (Канзас) - Часть 2 - Ball of Twine (Kansas) - Part 2
1 сезон 6 серия - Крупнейший в Америке моток бечевки (Канзас) - Часть 3 - Ball of Twine (Kansas) - Part 3
1 сезон 7 серия - Парализующий ужас (Орегон) - Часть 1 - Scared Stiff (Oregon) - Part 1
1 сезон 8 серия - Парализующий ужас (Орегон) - Часть 2 - Scared Stiff (Oregon) - Part 2
1 сезон 9 серия - Остров Серого Облака (Миннесота) - Часть 1 - Grey Cloud Island (Minnesota) - Part 1
1 сезон 10 серия - Остров Серого Облака (Миннесота) - Часть 2 - Grey Cloud Island (Minnesota) - Part 2
1 сезон 11 серия - Остров Серого Облака (Миннесота) - Часть 3 - Grey Cloud Island (Minnesota) - Part 3
1 сезон 12 серия - Дестино (Флорида) - Часть 1 - Destino (Florida) - Part 1
1 сезон 13 серия - Дестино (Флорида) - Часть 2 - Destino (Florida) - Part 2
1 сезон 14 серия - Дестино (Флорида) - Часть 3 - Destino (Florida) - Part 3

Сезон 2
2 сезон 1 серия - Почти там (Айова) - Часть 1 - Almost There (Iowa) - Part 1
2 сезон 2 серия - Почти там (Айова) - Часть 2 - Almost There (Iowa) - Part 2
2 сезон 3 серия - Почти там (Айова) - Часть 3 - Almost There (Iowa) - Part 3
2 сезон 4 серия - 13 ступеней в ад (Вашингтон) - Часть 1 - 13 Steps to Hell (Washington) - Part 1
2 сезон 5 серия - 13 ступеней в ад (Вашингтон) - Часть 2 - 13 Steps to Hell (Washington) - Part 2
2 сезон 6 серия - Red Rum (Колорадо) - Часть 1 - Red Rum (Colorado) - Part 1
2 сезон 7 серия - Red Rum (Колорадо) - Часть 2- Red Rum (Colorado) - Part 2
2 сезон 8 серия - Red Rum (Колорадо) - Часть 3 - Red Rum (Colorado) - Part 3
2 сезон 9 серия - Дерен-Азалия (Миссури) - Часть 1 -Dogwood-Azalea (Missouri) - Part 1
2 сезон 10 серия - Дерен-Азалия (Миссури) - Часть 2 - Dogwood-Azalea (Missouri) - Part 2
--

MediaInfo 1Сезон

Общее
Уникальный идентификатор : 307643999271403498491491835960941527988 (0xE772143C044EBEDEBF0E01AC46BAC3B4)
Полное имя : E:\Baranov\50 штатов страха - 50 States of Fright\50.States.of.Fear.2020_S01_Н264_DD5.1_N.B_HD_1080_LostFilm_Rus_Eng\50.States.of.Fear.S01E01-E03_Н264_DD5.1_N.B_HD_1080_LostFilm_Rus_Eng.mkv
Формат : Matroska
Версия формата : Version 4
Размер файла : 1,26 Гбайт
Продолжительность : 23 м. 46 с.
Общий поток : 7 587 Кбит/сек
Название фильма : 50 States of Fright 2020 S01E01-03 @ Nikolai.Baranov & PIRATIYA
Дата кодирования : UTC 2020-07-05 13:13:59
Программа кодирования : mkvmerge v48.0.0 ('Fortress Around Your Heart') 64-bit
Библиотека кодирования : libebml v1.4.0 + libmatroska v1.6.0 / Lavf58.20.100
Видео
Идентификатор : 1
Формат : AVC
Формат/Информация : Advanced Video Codec
Профиль формата : High@L4.1
Настройки формата : CABAC / 4 Ref Frames
Параметр CABAC формата : Да
Параметр RefFrames формата : 4 кадра
Идентификатор кодека : V_MPEG4/ISO/AVC
Продолжительность : 23 м. 46 с.
Битрейт : 6 951 Кбит/сек
Ширина : 1 920 пикселей
Высота : 1 080 пикселей
Соотношение сторон : 16:9
Режим частоты кадров : Постоянный
Частота кадров : 23,976 (23976/1000) кадра/сек
Частота кадров в оригинале : 23,976 (24000/1001) кадра/сек
Цветовое пространство : YUV
Субдискретизация насыщенности : 4:2:0
Битовая глубина : 8 бит
Тип развёртки : Прогрессивная
Бит/(Пиксели*Кадры) : 0.140
Размер потока : 1,15 Гбайт (92%)
Заголовок : 50.States.of.Fear.S01E01-E03_Н264_DD5.1_N.B_HD_1080_LostFilm_Rus_Eng
Язык : Russian
Default : Да
Forced : Нет
Аудио #1
Идентификатор : 2
Формат : AC-3
Формат/Информация : Audio Coding 3
Коммерческое название : Dolby Digital
Идентификатор кодека : A_AC3
Продолжительность : 23 м. 45 с.
Вид битрейта : Постоянный
Битрейт : 384 Кбит/сек
Каналы : 6 каналов
Channel layout : L R C LFE Ls Rs
Частота : 48,0 КГц
Частота кадров : 31,250 кадров/сек (1536 SPF)
Метод сжатия : С потерями
Задержка видео : -83 мс.
Размер потока : 65,3 Мбайт (5%)
Заголовок : MVO LostFilm @DD5.1 AC3, 384 , Kbps, 48.0 KHz, 6 ch
Язык : Russian
Service kind : Complete Main
Default : Да
Forced : Нет
Аудио #2
Идентификатор : 3
Формат : AC-3
Формат/Информация : Audio Coding 3
Коммерческое название : Dolby Digital
Идентификатор кодека : A_AC3
Продолжительность : 15 м. 31 с.
Вид битрейта : Постоянный
Битрейт : 384 Кбит/сек
Каналы : 6 каналов
Channel layout : L R C LFE Ls Rs
Частота : 48,0 КГц
Частота кадров : 31,250 кадров/сек (1536 SPF)
Метод сжатия : С потерями
Задержка видео : -83 мс.
Размер потока : 42,6 Мбайт (3%)
Заголовок : Original@DD5.1 AC3 ,6384 Kbps, 48.0 KHz, 6 ch
Язык : English
Service kind : Complete Main
Default : Нет
Forced : Нет
Текст
Идентификатор : 4
Формат : UTF-8
Идентификатор кодека : S_TEXT/UTF8
Идентификатор кодека/Информация : UTF-8 Plain Text
Продолжительность : 15 м. 21 с.
Битрейт : 39 бит/сек
Count of elements : 166
Размер потока : 4,44 Кбайт (0%)
Заголовок : The Golden Arm (Michigan) -Part1-3-Original - SDH
Язык : English
Default : Да
Forced : Нет
Меню
00:00:00.083 : ru:Глава 01 / ru:Глава 01 / ru:Глава 01 / ru:Глава 01
--

MediaInfo 2Сезон

Общее
Уникальный идентификатор : 333478280141381404975160654433955978125 (0xFAE1949F1A1E08F46A4090BF82E59B8D)
Полное имя : E:\Baranov\50 штатов страха - 50 States of Fright\50.States.of.Fear.2020_S01-S02_Н264_DD5.1_N.B_HD_1080_LostFilm_Rus_Eng\S02\50.States.of.Fear.S02E01-E03_Н264_DD5.1_N.B_HD_1080_LostFilm_Rus_Eng.mkv
Формат : Matroska
Версия формата : Version 4
Размер файла : 1,31 Гбайт
Продолжительность : 24 м. 23 с.
Общий поток : 7 695 Кбит/сек
Название фильма : 50 States of Fright 2020 S02E01-03 @ Nikolai.Baranov & PIRATIYA
Дата кодирования : UTC 2020-10-30 07:40:02
Программа кодирования : mkvmerge v51.0.0 ('I Wish') 64-bit
Библиотека кодирования : libebml v1.4.0 + libmatroska v1.6.2
Видео
Идентификатор : 1
Формат : AVC
Формат/Информация : Advanced Video Codec
Профиль формата : High@L4.1
Настройки формата : CABAC / 4 Ref Frames
Параметр CABAC формата : Да
Параметр RefFrames формата : 4 кадра
Идентификатор кодека : V_MPEG4/ISO/AVC
Продолжительность : 24 м. 22 с.
Битрейт : 6 925 Кбит/сек
Ширина : 1 920 пикселей
Высота : 1 080 пикселей
Соотношение сторон : 16:9
Режим частоты кадров : Постоянный
Частота кадров : 23,976 (23976/1000) кадра/сек
Частота кадров в оригинале : 23,976 (24000/1001) кадра/сек
Цветовое пространство : YUV
Субдискретизация насыщенности : 4:2:0
Битовая глубина : 8 бит
Тип развёртки : Прогрессивная
Бит/(Пиксели*Кадры) : 0.139
Размер потока : 1,18 Гбайт (90%)
Заголовок : 50.States.of.Fear.S02E01-E03_Н264_DD5.1_N.B_HD_1080_LostFilm_Rus_Eng
Язык : Russian
Default : Нет
Forced : Нет
Аудио #1
Идентификатор : 2
Формат : AC-3
Формат/Информация : Audio Coding 3
Коммерческое название : Dolby Digital
Идентификатор кодека : A_AC3
Продолжительность : 24 м. 22 с.
Вид битрейта : Постоянный
Битрейт : 384 Кбит/сек
Каналы : 6 каналов
Channel layout : L R C LFE Ls Rs
Частота : 48,0 КГц
Частота кадров : 31,250 кадров/сек (1536 SPF)
Метод сжатия : С потерями
Размер потока : 67,0 Мбайт (5%)
Заголовок : MVO LostFilm @DD5.1 AC3, 384 , Kbps, 48.0 KHz, 6 ch
Язык : Russian
Service kind : Complete Main
Default : Да
Forced : Нет
Аудио #2
Идентификатор : 3
Формат : AC-3
Формат/Информация : Audio Coding 3
Коммерческое название : Dolby Digital
Идентификатор кодека : A_AC3
Продолжительность : 24 м. 23 с.
Вид битрейта : Постоянный
Битрейт : 384 Кбит/сек
Каналы : 6 каналов
Channel layout : L R C LFE Ls Rs
Частота : 48,0 КГц
Частота кадров : 31,250 кадров/сек (1536 SPF)
Метод сжатия : С потерями
Размер потока : 67,0 Мбайт (5%)
Заголовок : Original@DD5.1 AC3 , 384 Kbps, 48.0 KHz, 6 ch
Язык : English
Service kind : Complete Main
Default : Нет
Forced : Нет
Текст #1
Идентификатор : 4
Формат : UTF-8
Идентификатор кодека : S_TEXT/UTF8
Идентификатор кодека/Информация : UTF-8 Plain Text
Продолжительность : 24 м. 14 с.
Битрейт : 40 бит/сек
Count of elements : 262
Размер потока : 7,15 Кбайт (0%)
Заголовок : Почти там (Айова) - Часть 1-3-Original - SDH
Язык : English
Default : Да
Forced : Нет
Текст #2
Идентификатор : 5
Формат : UTF-8
Идентификатор кодека : S_TEXT/UTF8
Идентификатор кодека/Информация : UTF-8 Plain Text
Продолжительность : 24 м. 8 с.
Битрейт : 32 бит/сек
Count of elements : 174
Размер потока : 5,72 Кбайт (0%)
Заголовок : Almost There (Iowa) - Part 1-3-Original.srt
Язык : English
Default : Нет
Forced : Нет
Меню
00:00:00.000 : ru:Глава 01 / ru:Глава 01 / ru:Глава 01 / ru:Глава 01 / ru:Глава 01
--

Скриншоты

Сезон 1


Сезон 2

--
1Сезон
--
2Сезон
--

Как закачать отдельный файл

1. Открыть торрент
2. Снять галки с тех файлов торрента, которые мы не хотим закачивать. Оставляем только на нужных нам файлах (файле).
3. Нажать О.К.
В клиенте utorrent
Инструкция
1) Открыть торрент

2) Снять галки с тех файлов торрента, которые мы не хотим закачивать:
* либо вручную, снимая с каждого файла галку( скрин №1)
* либо, нажав кнопку "Снять метки (Select None)", сняв сразу со всех файлов(скрин №2)
№1

№2

Оставляем только на нужных нам файлах (файле).

3)Нажать О.К
-- -- --Внимание!!! 20.11. 2020. РАЗДАЧА ОБНОВЛЕНА. ДОБАВЛЕНА -9 - 10- СЕРИЯ 2 СЕЗОНА .. ФИНАЛ СЕЗОНА . ОБНОВИТЕ ТОРЕНТ ФАЙЛ. ПРИЯТНОГО ПРОСМОТРА . Поблагодарить:
ЯД: 410017546713876
--Релиз от: Nikolai.Baranov & PIRATIYA -- -- -- --Время раздачи : 24/7---

_________________

Легко быть оптимистом, когда судьба не валит с ног тяжелыми ударами, а лишь иногда легонько шлепает по заднице.
[Торрент-статистика]
[Профиль]  [ЛС] 
Показать сообщения:    
Ответить на тему

Текущее время: Сегодня 15:50

Часовой пояс: GMT + 4



Вы не можете начинать темы
Вы не можете отвечать на сообщения
Вы не можете редактировать свои сообщения
Вы не можете удалять свои сообщения
Вы не можете голосовать в опросах
Вы не можете прикреплять файлы к сообщениям
Вы не можете скачивать файлы