Сторожка / The Lodge (Северин Фиала / Severin Fiala, Вероника Франц / Veronika Franz) [2019, Великобритания, Канада, США, ужасы, триллер, драма, BDRip 720p] MVO (iTunes) + Original + Sub (Rus/Eng)

Ответить на тему
 
Автор
Сообщение

Kon912 ®

Стаж: 19 дней

Сообщений: 10

Репутация: 3 [+] [-]

Пост 18-Май-2020 23:38

[Цитировать] 

Сторожка / The Lodge- Страна: Великобритания, Канада, США
Жанр: ужасы, триллер, драма
Год выпуска: 2019
Продолжительность: 01:48:18-Перевод: Профессиональный (многоголосый, закадровый) | iTunes
Субтитры: нет
Оригинальная аудиодорожка: нет-Режиссер:
Северин Фиала / Severin Fiala, Вероника Франц / Veronika Franz-В ролях:
Ричард Армитедж, Алисия Сильверстоун, Джейден Мартелл, Райли Кио, Лия МакХью, Ребекка Фолкенберри, Кэтлин Уэллс, Лола Рейд-Описание: Молодая женщина Грейс выходит замуж за журналиста Ричарда, и теперь ей предстоит стать мачехой двоим детям. Чему сами Мия и Эйден не очень-то рады: в отличие от влюбчивого отца они ещё не забыли мать, покончившую с собой после развода. К тому же Грейс — дочь основателя секты, 12 лет назад совершившей массовое самоубийство, поэтому дети считают, что отец променял мать на психопатку. Чтобы Мия и Эйден ближе познакомились с Грейс, Ричард отправляет семейство провести пару дней перед Рождеством в отдаленном от цивилизации доме.- -Качество видео: BDRip 720p
Формат видео: MKV
Видео: MPEG-4 AVC, 1280x692, 7000 Кbit/s, 23.976 fps
Аудио #01: 48 kHz, AC3, 5.1, 384 Kbps | iTunes | RUS |
Аудио #02: 48 kHz, AC3, 5.1, 640 Kbps | Оригинал | ENG |
Субтитры: Русские (Full), украинские (Full), английские

Скриншоты

MI

General
Unique ID : 335364311559206554936430829275397167587 (0xFC4CD12653A0E5D66DA937F330C319E3)
Complete name : E:Video111The.Lodge.2019.BDRip.720p.seleZen.mkv
Format : Matroska
Format version : Version 4
File size : 6.04 GiB
Duration : 1 h 48 min
Overall bit rate : 7 989 kb/s
Movie name : The Lodge 2019 from селезень
Encoded date : UTC 2020-05-18 18:32:15
Writing application : mkvmerge v40.0.0 ('Old Town Road + Pony') 64-bit
Writing library : libebml v1.3.9 + libmatroska v1.5.2
Video
ID : 1
Format : AVC
Format/Info : Advanced Video Codec
Format profile : High@L4.1
Format settings : CABAC / 9 Ref Frames
Format settings, CABAC : Yes
Format settings, Reference : 9 frames
Codec ID : V_MPEG4/ISO/AVC
Duration : 1 h 48 min
Bit rate : 7 000 kb/s
Width : 1 280 pixels
Height : 692 pixels
Display aspect ratio : 1.85:1
Frame rate mode : Constant
Frame rate : 23.976 (24000/1001) FPS
Color space : YUV
Chroma subsampling : 4:2:0
Bit depth : 8 bits
Scan type : Progressive
Bits/(Pixel*Frame) : 0.330
Stream size : 5.27 GiB (87%)
Title : LoRD
Writing library : x264 core 160 r3000 33f9e14
Encoding settings : cabac=1 / ref=9 / deblock=1:-3:-3 / analyse=0x3:0x133 / me=umh / subme=10 / psy=1 / psy_rd=1.00:0.00 / mixed_ref=1 / me_range=32 / chroma_me=1 / trellis=2 / 8x8dct=1 / cqm=0 / deadzone=21,11 / fast_pskip=0 / chroma_qp_offset=-2 / threads=12 / lookahead_threads=2 / sliced_threads=0 / nr=0 / decimate=0 / interlaced=0 / bluray_compat=0 / constrained_intra=0 / bframes=9 / b_pyramid=2 / b_adapt=2 / b_bias=0 / direct=3 / weightb=1 / open_gop=0 / weightp=2 / keyint=250 / keyint_min=23 / scenecut=40 / intra_refresh=0 / rc_lookahead=75 / rc=2pass / mbtree=0 / bitrate=7000 / ratetol=1.0 / qcomp=0.60 / qpmin=0 / qpmax=69 / qpstep=4 / cplxblur=20.0 / qblur=0.5 / vbv_maxrate=50000 / vbv_bufsize=62500 / nal_hrd=none / filler=0 / ip_ratio=1.25 / pb_ratio=1.25 / aq=3:0.75
Language : English
Default : Yes
Forced : No
Color range : Limited
Color primaries : BT.709
Transfer characteristics : BT.709
Matrix coefficients : BT.709
Audio #1
ID : 2
Format : AC-3
Format/Info : Audio Coding 3
Commercial name : Dolby Digital
Codec ID : A_AC3
Duration : 1 h 48 min
Bit rate mode : Constant
Bit rate : 384 kb/s
Channel(s) : 6 channels
Channel layout : L R C LFE Ls Rs
Sampling rate : 48.0 kHz
Frame rate : 31.250 FPS (1536 SPF)
Compression mode : Lossy
Stream size : 297 MiB (5%)
Title : iTunes
Language : Russian
Service kind : Complete Main
Default : Yes
Forced : Yes
Audio #2
ID : 3
Format : AC-3
Format/Info : Audio Coding 3
Commercial name : Dolby Digital
Codec ID : A_AC3
Duration : 1 h 48 min
Bit rate mode : Constant
Bit rate : 640 kb/s
Channel(s) : 6 channels
Channel layout : L R C LFE Ls Rs
Sampling rate : 48.0 kHz
Frame rate : 31.250 FPS (1536 SPF)
Compression mode : Lossy
Stream size : 496 MiB (8%)
Title : Original
Language : English
Service kind : Complete Main
Default : No
Forced : No
Text #1
ID : 4
Format : UTF-8
Codec ID : S_TEXT/UTF8
Codec ID/Info : UTF-8 Plain Text
Duration : 1 h 46 min
Bit rate : 41 b/s
Count of elements : 773
Stream size : 32.2 KiB (0%)
Title : Full [iTunes]
Language : Russian
Default : No
Forced : No
Text #2
ID : 5
Format : UTF-8
Codec ID : S_TEXT/UTF8
Codec ID/Info : UTF-8 Plain Text
Duration : 1 h 46 min
Bit rate : 43 b/s
Count of elements : 771
Stream size : 34.0 KiB (0%)
Title : Full [iTunes]
Language : Ukrainian
Default : No
Forced : No
Text #3
ID : 6
Format : UTF-8
Codec ID : S_TEXT/UTF8
Codec ID/Info : UTF-8 Plain Text
Duration : 1 h 40 min
Bit rate : 28 b/s
Count of elements : 879
Stream size : 20.7 KiB (0%)
Title : Full
Language : English
Default : No
Forced : No
Text #4
ID : 7
Format : UTF-8
Codec ID : S_TEXT/UTF8
Codec ID/Info : UTF-8 Plain Text
Duration : 1 h 48 min
Bit rate : 36 b/s
Count of elements : 1261
Stream size : 29.0 KiB (0%)
Title : SDH
Language : English
Default : No
Forced : No
Menu
00:00:00.000 : en:Chapter 1
00:12:07.893 : en:Chapter 2
00:23:59.062 : en:Chapter 3
00:35:26.874 : en:Chapter 4
00:47:47.489 : en:Chapter 5
00:59:46.874 : en:Chapter 6
01:17:27.768 : en:Chapter 7
01:42:00.948 : en:Chapter 8
Релиз от:
[Торрент-статистика]
[Профиль]  [ЛС] 

Пост 19-Май-2020 10:10 (спустя 10 часов)

Топик был перенесен из форума UHD Video в форум Зарубежное кино
Волк
 
Показать сообщения:    
Ответить на тему

Текущее время: Сегодня 13:14

Часовой пояс: GMT + 4



Вы не можете начинать темы
Вы не можете отвечать на сообщения
Вы не можете редактировать свои сообщения
Вы не можете удалять свои сообщения
Вы не можете голосовать в опросах
Вы не можете прикреплять файлы к сообщениям
Вы не можете скачивать файлы