Сторожка / The Lodge (Северин Фиала / Severin Fiala, Вероника Франц / Veronika Franz) [2019, Великобритания, Канада, США, ужасы, триллер, драма, BDRemux 1080p] MVO (iTunes) + Original + Sub (Rus/Eng)

Ответить на тему
 
Автор
Сообщение

Kon912 ®

Стаж: 21 день

Сообщений: 10

Репутация: 3 [+] [-]

Пост 18-Май-2020 23:36

[Цитировать] 

Сторожка / The Lodge- Страна: Великобритания, Канада, США
Жанр: ужасы, триллер, драма
Год выпуска: 2019
Продолжительность: 01:48:18-Перевод: Профессиональный (многоголосый, закадровый) | iTunes
Субтитры: нет
Оригинальная аудиодорожка: нет-Режиссер:
Северин Фиала / Severin Fiala, Вероника Франц / Veronika Franz-В ролях:
Ричард Армитедж, Алисия Сильверстоун, Джейден Мартелл, Райли Кио, Лия МакХью, Ребекка Фолкенберри, Кэтлин Уэллс, Лола Рейд-Описание: Молодая женщина Грейс выходит замуж за журналиста Ричарда, и теперь ей предстоит стать мачехой двоим детям. Чему сами Мия и Эйден не очень-то рады: в отличие от влюбчивого отца они ещё не забыли мать, покончившую с собой после развода. К тому же Грейс — дочь основателя секты, 12 лет назад совершившей массовое самоубийство, поэтому дети считают, что отец променял мать на психопатку. Чтобы Мия и Эйден ближе познакомились с Грейс, Ричард отправляет семейство провести пару дней перед Рождеством в отдаленном от цивилизации доме.- -Качество видео: BDRemux 1080p
Формат видео: MKV
Видео: MPEG-4 AVC, 1920x1080, 20.7 Mbit/s, 23.976 fps
Аудио #01: 48 kHz, AC3, 5.1, 384 Kbps | iTunes | RUS |
Аудио #02: 48 kHz, DTS-HD MA, 5.1, 3318 Kbps | Оригинал | ENG |
Субтитры: Русские (Full), украинские (Full), английские

Скриншоты

MI

General
Unique ID : 174640500467696006199092789746216739878 (0x83628974985C193A8E7338A09C882426)
Complete name : E:Video111The.Lodge.2019.BDREMUX.1080p.seleZen.mkv
Format : Matroska
Format version : Version 4
File size : 18.5 GiB
Duration : 1 h 48 min
Overall bit rate mode : Variable
Overall bit rate : 24.4 Mb/s
Movie name : The Lodge 2019 from селезень
Encoded date : UTC 2020-05-18 18:38:09
Writing application : mkvmerge v40.0.0 ('Old Town Road + Pony') 64-bit
Writing library : libebml v1.3.9 + libmatroska v1.5.2
Video
ID : 1
Format : AVC
Format/Info : Advanced Video Codec
Format profile : High@L4.1
Format settings : CABAC / 4 Ref Frames
Format settings, CABAC : Yes
Format settings, Reference : 4 frames
Codec ID : V_MPEG4/ISO/AVC
Duration : 1 h 48 min
Bit rate mode : Variable
Bit rate : 20.7 Mb/s
Maximum bit rate : 36.0 Mb/s
Width : 1 920 pixels
Height : 1 080 pixels
Display aspect ratio : 16:9
Frame rate mode : Constant
Frame rate : 23.976 (24000/1001) FPS
Color space : YUV
Chroma subsampling : 4:2:0
Bit depth : 8 bits
Scan type : Progressive
Bits/(Pixel*Frame) : 0.416
Stream size : 15.7 GiB (85%)
Language : English
Default : Yes
Forced : No
Audio #1
ID : 2
Format : AC-3
Format/Info : Audio Coding 3
Commercial name : Dolby Digital
Codec ID : A_AC3
Duration : 1 h 48 min
Bit rate mode : Constant
Bit rate : 384 kb/s
Channel(s) : 6 channels
Channel layout : L R C LFE Ls Rs
Sampling rate : 48.0 kHz
Frame rate : 31.250 FPS (1536 SPF)
Compression mode : Lossy
Stream size : 297 MiB (2%)
Title : iTunes
Language : Russian
Service kind : Complete Main
Default : Yes
Forced : Yes
Audio #2
ID : 3
Format : DTS XLL
Format/Info : Digital Theater Systems
Commercial name : DTS-HD Master Audio
Codec ID : A_DTS
Duration : 1 h 48 min
Bit rate mode : Variable
Bit rate : 3 318 kb/s
Channel(s) : 6 channels
Channel layout : C L R Ls Rs LFE
Sampling rate : 48.0 kHz
Frame rate : 93.750 FPS (512 SPF)
Bit depth : 24 bits
Compression mode : Lossless
Stream size : 2.51 GiB (14%)
Title : Original
Language : English
Default : No
Forced : No
Text #1
ID : 4
Format : UTF-8
Codec ID : S_TEXT/UTF8
Codec ID/Info : UTF-8 Plain Text
Duration : 1 h 46 min
Bit rate : 41 b/s
Count of elements : 773
Stream size : 32.2 KiB (0%)
Title : Full [iTunes]
Language : Russian
Default : No
Forced : No
Text #2
ID : 5
Format : UTF-8
Codec ID : S_TEXT/UTF8
Codec ID/Info : UTF-8 Plain Text
Duration : 1 h 46 min
Bit rate : 43 b/s
Count of elements : 771
Stream size : 34.0 KiB (0%)
Title : Full [iTunes]
Language : Ukrainian
Default : No
Forced : No
Text #3
ID : 6
Format : UTF-8
Codec ID : S_TEXT/UTF8
Codec ID/Info : UTF-8 Plain Text
Duration : 1 h 40 min
Bit rate : 28 b/s
Count of elements : 879
Stream size : 20.7 KiB (0%)
Title : Full
Language : English
Default : No
Forced : No
Text #4
ID : 7
Format : UTF-8
Codec ID : S_TEXT/UTF8
Codec ID/Info : UTF-8 Plain Text
Duration : 1 h 48 min
Bit rate : 36 b/s
Count of elements : 1261
Stream size : 29.0 KiB (0%)
Title : SDH
Language : English
Default : No
Forced : No
Menu
00:00:00.000 : en:Chapter 1
00:12:07.893 : en:Chapter 2
00:23:59.062 : en:Chapter 3
00:35:26.874 : en:Chapter 4
00:47:47.489 : en:Chapter 5
00:59:46.874 : en:Chapter 6
01:17:27.768 : en:Chapter 7
01:42:00.948 : en:Chapter 8
Релиз от:
[Торрент-статистика]
[Профиль]  [ЛС] 

Пост 19-Май-2020 10:10 (спустя 10 часов)

Топик был перенесен из форума UHD Video в форум Зарубежное кино
Волк
 
Показать сообщения:    
Ответить на тему

Текущее время: Сегодня 10:15

Часовой пояс: GMT + 4



Вы не можете начинать темы
Вы не можете отвечать на сообщения
Вы не можете редактировать свои сообщения
Вы не можете удалять свои сообщения
Вы не можете голосовать в опросах
Вы не можете прикреплять файлы к сообщениям
Вы не можете скачивать файлы