Флибэг (Дрянь, Пройдоха)/ Fleabag (Сезон 1-2, Серия 1-12 из 12) (Гарри Брэдбир, Тим Киркби) [2016,Комедия,BluRay - HEVC 10bit - 1080p] [LostFilm+NewStudio +Eng]+[Subs Rus , ENG]

Ответить на тему
 
Автор
Сообщение

Враг Нароода ®

Пол:

Стаж: 2 года 4 месяца

Сообщений: 191

Репутация: 201 [+] [-]

Откуда: Красногорск

Пост 18-Май-2020 14:32

[Цитировать] 

---- Флибэг (Дрянь, Пройдоха)/ Fleabag - (Сезон 1-2, Серия 1-12 из 12) - Полный Комплект -- --Год выпуска: 2016-2019
Выпущено: Великобритания, ВВС
Жанр: Комедия
Продолжительность: : 00:26:00
Сезон:1-2
Серия:1-12
Количество серий в сезоне:12--Озвучка #1: Профессиональный многоголосый - LostFilm - Русский
Озвучка #2: Профессиональный многоголосый - NewStudio - Русский
Озвучка #3: Профессиональный многоголосый -Английский - Оригинал
Субтитры: Russian ,English, English SDH
--Релиз Без Рекламы - Ненормативная лексика -- MDB 8.7 --Режиссеры:
Гарри Брэдбир, Тим Киркби --В ролях: Фиби Уоллер-Бридж, Бен Элдридж, Шан Клиффорд, Джэми Деметриу, Билл Патерсон, Дженни Рейнсфорд, Хью Скиннер, Оливия Колман, Сара Дэйкин, Хью Дэннис-- История остроумной сексуально озабоченной и упивающейся своими горестями женщины, которая бросается на баррикады повседневности современного Лондона.-- --Качество :BluRay - HEVC 10bit - 1080p.
Формат: MKV
Видео кодек: H265
Видео: 4654Кбит/сек,1920х1080(16.9),в 23.976кадр/сек, HEVC (Main10@L5.2@Main)--Аудио Кодек:AC3
Аудио #1: MVO LostFilm @DD5.1 AC3, 384 Kbps, 48.0 KHz, 6 ch - LostFilm - Русский
Аудио #2: MVO NewStudio @DD5.1 AC3, 384 Kbps, 48.0 KHz, 6 ch- NewStudio - Русский
Аудио #3: Original@DD5.1 AC3 , 640 Kbps, 48.0 KHz, 6 ch - English - Оригинал--

Доп. информация:

Звуковая дорожка сделана путем наложения чистого голоса озвучивателей на центральный канал оригинальной дорожки. Качество идентично звуковой дорожке.
--

MediaInfo 1Сезон

Общее
Уникальный идентификатор : 99085802046436965208700261228889262428 (0x4A8B3B37F34FC5A30DF775BF3C4C495C)
Полное имя : E:\RussianPatriot\Флибэг (Дрянь, Пройдоха) - Fleabag\Fleabag_2016_S01_HEVC- 10Bit_Н265_DD5.1_N.B_BluRay _1080_2xRus_Eng\S01\Fleabag_S01E01_HEVC_Н265_DD5.1_N.B_BluRay _1080_2xRus_Eng.mkv
Формат : Matroska
Версия формата : Version 4
Размер файла : 1,11 Гбайт
Продолжительность : 26 м. 5 с.
Общий поток : 6 070 Кбит/сек
Название фильма : Fleabag 2016 S01E01 @ Nikolai.Baranov & PIRATIYA
Дата кодирования : UTC 2020-05-11 10:55:44
Программа кодирования : mkvmerge v46.0.0 ('No Deeper Escape') 64-bit
Библиотека кодирования : libebml v1.3.10 + libmatroska v1.5.2
Видео
Идентификатор : 1
Формат : HEVC
Формат/Информация : High Efficiency Video Coding
Профиль формата : Main 10@L5.2@Main
Идентификатор кодека : V_MPEGH/ISO/HEVC
Продолжительность : 26 м. 5 с.
Битрейт : 4 654 Кбит/сек
Ширина : 1 920 пикселей
Высота : 808 пикселей
Соотношение сторон : 2,40:1
Режим частоты кадров : Постоянный
Частота кадров : 25,000 кадров/сек
Цветовое пространство : YUV
Субдискретизация насыщенности : 4:2:0
Битовая глубина : 10 бит
Бит/(Пиксели*Кадры) : 0.120
Размер потока : 869 Мбайт (77%)
Заголовок : Fleabag_S01E01_HEVC_Н265_DD5.1_N.B_BluRay _1080_2xRus_Eng
Язык : Russian
Default : Да
Forced : Нет
Цветовой диапазон : Full
Основные цвета : BT.709
Характеристики трансфера : BT.709
Коэффициенты матрицы : BT.709
Аудио #1
Идентификатор : 3
Формат : AC-3
Формат/Информация : Audio Coding 3
Коммерческое название : Dolby Digital
Идентификатор кодека : A_AC3
Продолжительность : 26 м. 4 с.
Вид битрейта : Постоянный
Битрейт : 384 Кбит/сек
Каналы : 6 каналов
Channel layout : L R C LFE Ls Rs
Частота : 48,0 КГц
Частота кадров : 31,250 кадров/сек (1536 SPF)
Метод сжатия : С потерями
Размер потока : 71,6 Мбайт (6%)
Заголовок : MVO LostFilm @DD5.1 AC3, 384 Kbps, 48.0 KHz, 6 ch
Язык : Russian
Service kind : Complete Main
Default : Да
Forced : Нет
Аудио #2
Идентификатор : 4
Формат : AC-3
Формат/Информация : Audio Coding 3
Коммерческое название : Dolby Digital
Идентификатор кодека : A_AC3
Продолжительность : 26 м. 4 с.
Вид битрейта : Постоянный
Битрейт : 384 Кбит/сек
Каналы : 6 каналов
Channel layout : L R C LFE Ls Rs
Частота : 48,0 КГц
Частота кадров : 31,250 кадров/сек (1536 SPF)
Метод сжатия : С потерями
Размер потока : 71,6 Мбайт (6%)
Заголовок : MVO NewStudio @DD5.1 AC3, 384 Kbps, 48.0 KHz, 6 ch
Язык : Russian
Service kind : Complete Main
Default : Нет
Forced : Нет
Аудио #3
Идентификатор : 5
Формат : AC-3
Формат/Информация : Audio Coding 3
Коммерческое название : Dolby Digital
Идентификатор кодека : A_AC3
Продолжительность : 26 м. 5 с.
Вид битрейта : Постоянный
Битрейт : 640 Кбит/сек
Каналы : 6 каналов
Channel layout : L R C LFE Ls Rs
Частота : 48,0 КГц
Частота кадров : 31,250 кадров/сек (1536 SPF)
Метод сжатия : С потерями
Размер потока : 119 Мбайт (11%)
Заголовок : Original@DD5.1 AC3 , 640 Kbps, 48.0 KHz, 6 ch
Язык : English
Service kind : Complete Main
Default : Нет
Forced : Нет
Текст #1
Идентификатор : 2
Формат : UTF-8
Идентификатор кодека : S_TEXT/UTF8
Идентификатор кодека/Информация : UTF-8 Plain Text
Продолжительность : 25 м. 45 с.
Битрейт : 101 бит/сек
Count of elements : 370
Размер потока : 19,2 Кбайт (0%)
Заголовок : Russian
Язык : Russian
Default : Да
Forced : Нет
Текст #2
Идентификатор : 6
Формат : UTF-8
Идентификатор кодека : S_TEXT/UTF8
Идентификатор кодека/Информация : UTF-8 Plain Text
Продолжительность : 24 м. 43 с.
Битрейт : 66 бит/сек
Count of elements : 409
Размер потока : 12,1 Кбайт (0%)
Заголовок : Original - SDH
Язык : English
Default : Нет
Forced : Нет
Текст #3
Идентификатор : 7
Формат : VobSub
Режим смешивания : zlib
Идентификатор кодека : S_VOBSUB
Идентификатор кодека/Информация : Picture based subtitle format used on DVDs
Продолжительность : 26 м. 4 с.
Битрейт : 11,6 Кбит/сек
Count of elements : 376
Размер потока : 2,16 Мбайт (0%)
Заголовок : Original
Язык : English
Default : Нет
Forced : Нет
Меню
00:00:00.000 : en:00:00:00.000
00:06:55.200 : en:00:06:55.200
00:13:48.200 : en:00:13:48.200
00:21:27.240 : en:00:21:27.240
--

MediaInfo 2Сезон

Общее
Уникальный идентификатор : 305639835497767238116326896854542034028 (0xE5F01754D681B75AFB5B6B9A663BA46C)
Полное имя : E:\RussianPatriot\Флибэг (Дрянь, Пройдоха) - Fleabag\Fleabag_2016_S01_HEVC- 10Bit_Н265_DD5.1_N.B_BluRay _1080_2xRus_Eng\S02\Fleabag_S02E01_HEVC_Н265_DD5.1_N.B_BluRay _1080_2xRus_Eng.mkv
Формат : Matroska
Версия формата : Version 4
Размер файла : 1,07 Гбайт
Продолжительность : 25 м. 36 с.
Общий поток : 5 969 Кбит/сек
Название фильма : Fleabag 2019 S02E01 @ Nikolai.Baranov & PIRATIYA
Дата кодирования : UTC 2020-05-18 05:58:51
Программа кодирования : mkvmerge v46.0.0 ('No Deeper Escape') 64-bit
Библиотека кодирования : libebml v1.3.10 + libmatroska v1.5.2
Видео
Идентификатор : 1
Формат : HEVC
Формат/Информация : High Efficiency Video Coding
Профиль формата : Main 10@L5.2@Main
Идентификатор кодека : V_MPEGH/ISO/HEVC
Продолжительность : 25 м. 36 с.
Битрейт : 4 549 Кбит/сек
Ширина : 1 920 пикселей
Высота : 808 пикселей
Соотношение сторон : 2,40:1
Режим частоты кадров : Постоянный
Частота кадров : 25,000 кадров/сек
Цветовое пространство : YUV
Субдискретизация насыщенности : 4:2:0
Битовая глубина : 10 бит
Бит/(Пиксели*Кадры) : 0.117
Размер потока : 833 Мбайт (76%)
Заголовок : Fleabag_S02E01_HEVC_Н265_DD5.1_N.B_BluRay _1080_2xRus_Eng
Язык : Russian
Default : Да
Forced : Нет
Цветовой диапазон : Full
Основные цвета : BT.709
Характеристики трансфера : BT.709
Коэффициенты матрицы : BT.709
Аудио #1
Идентификатор : 3
Формат : AC-3
Формат/Информация : Audio Coding 3
Коммерческое название : Dolby Digital
Идентификатор кодека : A_AC3
Продолжительность : 25 м. 35 с.
Вид битрейта : Постоянный
Битрейт : 384 Кбит/сек
Каналы : 6 каналов
Channel layout : L R C LFE Ls Rs
Частота : 48,0 КГц
Частота кадров : 31,250 кадров/сек (1536 SPF)
Метод сжатия : С потерями
Размер потока : 70,3 Мбайт (6%)
Заголовок : MVO LostFilm @DD5.1 AC3, 384 Kbps, 48.0 KHz, 6 ch
Язык : Russian
Service kind : Complete Main
Default : Да
Forced : Нет
Аудио #2
Идентификатор : 4
Формат : AC-3
Формат/Информация : Audio Coding 3
Коммерческое название : Dolby Digital
Идентификатор кодека : A_AC3
Продолжительность : 25 м. 34 с.
Вид битрейта : Постоянный
Битрейт : 384 Кбит/сек
Каналы : 6 каналов
Channel layout : L R C LFE Ls Rs
Частота : 48,0 КГц
Частота кадров : 31,250 кадров/сек (1536 SPF)
Метод сжатия : С потерями
Размер потока : 70,3 Мбайт (6%)
Заголовок : MVO NewStudio @DD5.1 AC3, 384 Kbps, 48.0 KHz, 6 ch
Язык : Russian
Service kind : Complete Main
Default : Нет
Forced : Нет
Аудио #3
Идентификатор : 5
Формат : AC-3
Формат/Информация : Audio Coding 3
Коммерческое название : Dolby Digital
Идентификатор кодека : A_AC3
Продолжительность : 25 м. 36 с.
Вид битрейта : Постоянный
Битрейт : 640 Кбит/сек
Каналы : 6 каналов
Channel layout : L R C LFE Ls Rs
Частота : 48,0 КГц
Частота кадров : 31,250 кадров/сек (1536 SPF)
Метод сжатия : С потерями
Размер потока : 117 Мбайт (11%)
Заголовок : Original@DD5.1 AC3 , 640 Kbps, 48.0 KHz, 6 ch
Язык : English
Service kind : Complete Main
Default : Нет
Forced : Нет
Текст #1
Идентификатор : 2
Формат : UTF-8
Идентификатор кодека : S_TEXT/UTF8
Идентификатор кодека/Информация : UTF-8 Plain Text
Продолжительность : 24 м. 58 с.
Битрейт : 147 бит/сек
Count of elements : 491
Размер потока : 26,9 Кбайт (0%)
Заголовок : Russian
Язык : Russian
Default : Да
Forced : Нет
Текст #2
Идентификатор : 6
Формат : UTF-8
Идентификатор кодека : S_TEXT/UTF8
Идентификатор кодека/Информация : UTF-8 Plain Text
Продолжительность : 24 м. 45 с.
Битрейт : 94 бит/сек
Count of elements : 540
Размер потока : 17,1 Кбайт (0%)
Заголовок : Original - SDH
Язык : English
Default : Нет
Forced : Нет
Текст #3
Идентификатор : 7
Формат : VobSub
Режим смешивания : zlib
Идентификатор кодека : S_VOBSUB
Идентификатор кодека/Информация : Picture based subtitle format used on DVDs
Продолжительность : 25 м. 28 с.
Битрейт : 15,6 Кбит/сек
Count of elements : 541
Размер потока : 2,85 Мбайт (0%)
Заголовок : Original
Язык : English
Default : Нет
Forced : Нет
Меню
00:00:00.000 : en:Chapter 01
00:08:05.080 : en:Chapter 02
00:15:26.440 : en:Chapter 03
00:25:04.800 : en:Chapter 04
--

Скриншоты

[
--
1Сезон
--
2Сезон
--Внимание! Раздача пополняется по мере выхода новых серий!--

Внимание! Раздача ведётся путём добавления новых серий!

Раздача ведётся путём добавления новых серий; при каждом добавлении создётся новый торрент.
Чтобы начать докачку новой серии, пользователям необходимо сделать следующее:
1. остановить скачивание,
2. удалить старый торрент у себя из клиента (старые серии удалять не надо),
3. скачать новый торрент и запустить его у себя в клиенте вместо старого, при этом указать клиенту путь в старую папку, куда и должно происходить скачивание новых серий.
Ваш клиент при этом должен произвести хеширование (проверку) старой папки (если не производит сам - помогите ему сделать это), и будет докачивать только те серии которых у вас ещё нет. Старые серии при этом не удаляются, а продолжают раздаваться!
Eсли вы уже удалили старые серии, то предотвратить повторную закачку старых серий можно, отжав галочку в соответсвующих местах при запуске нового торрента. По возможности, желательно не удалять старые серии как можно дольше, чтобы релизёр не столько продолжал раздавать старые серии, а смог сконцентрироваться на новых.
Совет для тех, кто не хочет ждать перехеширования:
Создайте ещё одну папку рядом с папкой сериала (рядом, а не в ней!!!). Каждую новую серию после удачной загрузки копируйте в новую папку так чтобы ваша основная папка всегда была пуста. Когда ваш новый торрент предложит вам закачать все файлы, выберете только последнюю. Для сидирования же укажите адрес новой папки.
Как закачать отдельный файл из торрента или докачать ранее пропущенные файлы торрента!

Как закачать отдельный файл

1. Открыть торрент
2. Снять галки с тех файлов торрента, которые мы не хотим закачивать. Оставляем только на нужных нам файлах (файле).
3. Нажать О.К.
В клиенте utorrent
Инструкция
1) Открыть торрент

2) Снять галки с тех файлов торрента, которые мы не хотим закачивать:
* либо вручную, снимая с каждого файла галку( скрин №1)
* либо, нажав кнопку "Снять метки (Select None)", сняв сразу со всех файлов(скрин №2)
№1

№2

Оставляем только на нужных нам файлах (файле).

3)Нажать О.К
-- -- --Внимание!!! 26.05 2020. РАЗДАЧА ОБНОВЛЕНА. ПОЛНЫЕ - 2 СЕЗОНА . ОБНОВИТЕ ТОРЕНТ ФАЙЛ. ПРИЯТНОГО ПРОСМОТРА . Поблагодарить:
ЯД: 410017546713876
--Релиз от: Nikolai.Baranov & PIRATIYA -- -- -- --Время раздачи : 24/7---

_________________

Легко быть оптимистом, когда судьба не валит с ног тяжелыми ударами, а лишь иногда легонько шлепает по заднице.
[Торрент-статистика]
[Профиль]  [ЛС] 
Показать сообщения:    
Ответить на тему

Текущее время: Сегодня 11:51

Часовой пояс: GMT + 4



Вы не можете начинать темы
Вы не можете отвечать на сообщения
Вы не можете редактировать свои сообщения
Вы не можете удалять свои сообщения
Вы не можете голосовать в опросах
Вы не можете прикреплять файлы к сообщениям
Вы не можете скачивать файлы