Мир Дикого запада / Westworld (Сезон 3 , Серия 1-2 из 8) (Джонатан Нолан, Ричард Дж. Льюис) [2020, Фантастика, триллер, вестерн,WEB-DLRip 1080p] [Красавец-Рекордз+AlexFilm+NewStudio+HDrezka+Eng]+[Subs Rus , ENG]

Ответить на тему
 
Автор
Сообщение

Враг Нароода ®

Пол:

Стаж: 2 года 2 месяца

Сообщений: 174

Репутация: 195 [+] [-]

Откуда: Красногорск

Пост 22-Мар-2020 17:22

[Цитировать] 

-- --Мир Дикого запада / Westworld (Сезон 3 , Серия 1-2 из 8)-- --Год выпуска: 2020
Выпущено: США , Bad Robot, Jerry Weintraub Productions, Kilter Films, Warner Bros. Television
Жанр: Фантастика, триллер, вестерн
Продолжительность: 01:11:00
Сезон:3
Серия:1-2
Количество серий в сезоне:8--Озвучка #1: Профессиональный Дублированный - Красавец-Рекордз по заказу Amedia - Русский
Озвучка #2: Профессиональный многоголосый - AlexFilm - Русский
Озвучка #3: Профессиональный многоголосый - NewStudio - Русский
Озвучка #4: Профессиональный многоголосый - HDrezka Studio - Русский
Озвучка #5: Профессиональный многоголосый -Английский - Оригинал
Субтитры: Russian (Forced, Full), English, English (SDH)
--Релиз Без Рекламы --MDB 8.7 --Режиссеры:
Джонатан Нолан, Ричард Дж. Льюис, Аманда Марсалис, Пол Кэмерон--В ролях: Эван Рэйчел Вуд, Тэнди Ньютон, Джеффри Райт, Тесса Томпсон, Эд Харрис, Люк Хемсворт, Саймон Куотерман, Родриго Санторо, Аарон Пол, Лина Уэйте, Венсан Кассель, Скотт Мескади, Маршон Линч, Джефферсон Мейс, Джон Галлахер мл., Майкл Или, Томми Флэнаган, Пейман Моаади, Пом Клементьефф-- Фантастический сериал, снятый при участии Джонатана Нолана («Интерстеллар», «Престиж») и Джей Джей Абрамса («Остаться в живых», «Звездные войны: Пробуждение силы»). Недалекое будущее. Гениальный конструктор и изобретатель Роберт Форд (Энтони Хопкинс) создает необычный парк развлечений, стилизованный под эпоху Дикого Запада. Однако люди едут сюда не столько за тем, чтобы на некоторое время перенестись в прошлое, сколько за новыми ощущениями: свой парк доктор Форд заселил человекоподобными роботами, с которыми посетители могут делать, все что захотят. Бояться им нечего: несмотря на то, что у некоторых андроидов есть оружие, они никогда не применят его против человека, поскольку запрограммированы угождать гостям парка. Но все меняется после поломки системы: один за другим роботы начинают нарушать заданный сценарий. Основную идею создатели сериала заимствовали из одноименного научно-фантастического фильма 1973 года писателя и режиссера Майкла Крайтона. Произведения Крайтона неоднократно привлекали внимание кинематографистов еще до публикации: за право экранизировать его роман «Парк Юрского периода» боролись сразу несколько студий, в итоге права приобрел Стивен Спилберг.-- --Качество : -WEB-DLRip - HEVC 10bit - 1080p.
Формат: MKV
Видео кодек: H265
Видео: 4648Кбит/сек,1920х1080(16.9),в 23.976кадр/сек, HEVC (Main10@L5.1@Main)--Аудио Кодек:AC3
Аудио #1:DUB Кравец-Рекордз @DD5.1 AC3, 384 Kbps, 48.0 KHz, 6 ch- Красавец-Рекордз по заказу Amedia -Русский
Аудио #2: MVO AlexFilm @DD5.1 AC3, 384 Kbps, 48.0 KHz, 6 ch- AlexFilm -Русский
Аудио #3: MVO NewStudio @DD5.1 AC3, 384 Kbps, 48.0 KHz, 6 ch- NewStudio -Русский
Аудио #4: MVO HDrezka Studio @DD5.1 AC3, 384 Kbps, 48.0 KHz, 6 ch- HDrezka Studio -Русский
Аудио #5: Original@DD5.1 E-AC3 , 640 Kbps, 48.0 KHz, 6 ch - English - Оригинал--

Доп. информация:

Звуковая дорожка сделана путем наложения чистого голоса озвучивателей на центральный канал оригинальной дорожки. Качество идентично звуковой дорожке.
--

Список эпизодов сезона


3 сезон 1 серия - Пощади Господи - Parce Domine
3 сезон 2 серия - Линия зимы - The Winter Line
--

MediaInfo

Общее
Уникальный идентификатор : 213758703294446406242236325605777955987 (0xA0D06DC2E02912BC20D270A8E4015C93)
Полное имя : E:\RussianPatriot\Мир Дикого запада - Westworld\Westworld_2020_S03_HEVC- 10Bit_Н265_DD5.1_N.B_HD_1080_4xRus_Eng\Westworld_2020_S03E01_HEVC_Н265_DD5.1_N.B_HD_1080_4xRus_Eng.mkv
Формат : Matroska
Версия формата : Version 4
Размер файла : 3,42 Гбайт
Продолжительность : 1 ч. 11 м.
Общий поток : 6828 Кбит/сек
Название фильма : Westworld 2020 S03E01 @ Nikolai.Baranov & PIRATIYA
Дата кодирования : UTC 2020-03-21 14:20:55
Программа кодирования : mkvmerge v44.0.0 ('Domino') 64-bit
Библиотека кодирования : libebml v1.3.10 + libmatroska v1.5.2
Видео
Идентификатор : 1
Формат : HEVC
Формат/Информация : High Efficiency Video Coding
Профиль формата : Main 10@L5.1@Main
Идентификатор кодека : V_MPEGH/ISO/HEVC
Продолжительность : 1 ч. 11 м.
Битрейт : 4648 Кбит/сек
Ширина : 1920 пикселей
Высота : 1080 пикселей
Соотношение сторон : 16:9
Режим частоты кадров : Постоянный
Частота кадров : 23,976 (24000/1001) кадра/сек
Цветовое пространство : YUV
Субдискретизация насыщенности : 4:2:0
Битовая глубина : 10 бит
Бит/(Пиксели*Кадры) : 0.093
Размер потока : 2,33 Гбайт (68%)
Заголовок : Westworld_2020_S03E01_HEVC_Н265_DD5.1_N.B_HD_1080_4xRus_Eng
Язык : Russian
Default : Да
Forced : Нет
Цветовой диапазон : Full
Основные цвета : BT.709
Характеристики трансфера : BT.709
Коэффициенты матрицы : BT.709
Аудио #1
Идентификатор : 4
Формат : AC-3
Формат/Информация : Audio Coding 3
Коммерческое название : Dolby Digital
Идентификатор кодека : A_AC3
Продолжительность : 1 ч. 11 м.
Вид битрейта : Постоянный
Битрейт : 384 Кбит/сек
Каналы : 6 каналов
ChannelLayout : L R C LFE Ls Rs
Частота : 48,0 КГц
Частота кадров : 31,250 кадров/сек (1536 SPF)
Метод сжатия : С потерями
Размер потока : 197 Мбайт (6%)
Заголовок : DUB Кравец-Рекордз @DD5.1 AC3, 384 Kbps, 48.0 KHz, 6 ch
Язык : Russian
ServiceKind/String : Complete Main
Default : Да
Forced : Нет
Аудио #2
Идентификатор : 5
Формат : AC-3
Формат/Информация : Audio Coding 3
Коммерческое название : Dolby Digital
Идентификатор кодека : A_AC3
Продолжительность : 1 ч. 11 м.
Вид битрейта : Постоянный
Битрейт : 384 Кбит/сек
Каналы : 6 каналов
ChannelLayout : L R C LFE Ls Rs
Частота : 48,0 КГц
Частота кадров : 31,250 кадров/сек (1536 SPF)
Метод сжатия : С потерями
Размер потока : 197 Мбайт (6%)
Заголовок : MVO AlexFilm @DD5.1 AC3, 384 Kbps, 48.0 KHz, 6 ch
Язык : Russian
ServiceKind/String : Complete Main
Default : Нет
Forced : Нет
Аудио #3
Идентификатор : 6
Формат : AC-3
Формат/Информация : Audio Coding 3
Коммерческое название : Dolby Digital
Идентификатор кодека : A_AC3
Продолжительность : 1 ч. 11 м.
Вид битрейта : Постоянный
Битрейт : 384 Кбит/сек
Каналы : 6 каналов
ChannelLayout : L R C LFE Ls Rs
Частота : 48,0 КГц
Частота кадров : 31,250 кадров/сек (1536 SPF)
Метод сжатия : С потерями
Размер потока : 197 Мбайт (6%)
Заголовок : MVO NewStudio @DD5.1 AC3, 384 Kbps, 48.0 KHz, 6 ch
Язык : Russian
ServiceKind/String : Complete Main
Default : Нет
Forced : Нет
Аудио #4
Идентификатор : 7
Формат : AC-3
Формат/Информация : Audio Coding 3
Коммерческое название : Dolby Digital
Идентификатор кодека : A_AC3
Продолжительность : 1 ч. 11 м.
Вид битрейта : Постоянный
Битрейт : 384 Кбит/сек
Каналы : 6 каналов
ChannelLayout : L R C LFE Ls Rs
Частота : 48,0 КГц
Частота кадров : 31,250 кадров/сек (1536 SPF)
Метод сжатия : С потерями
Размер потока : 197 Мбайт (6%)
Заголовок : MVO HDrezka Studio @DD5.1 AC3, 384 Kbps, 48.0 KHz, 6 ch
Язык : Russian
ServiceKind/String : Complete Main
Default : Нет
Forced : Нет
Аудио #5
Идентификатор : 8
Формат : E-AC-3
Формат/Информация : Enhanced AC-3
Коммерческое название : Dolby Digital Plus
Идентификатор кодека : A_EAC3
Продолжительность : 1 ч. 11 м.
Вид битрейта : Постоянный
Битрейт : 640 Кбит/сек
Каналы : 6 каналов
ChannelLayout : L R C LFE Ls Rs
Частота : 48,0 КГц
Частота кадров : 31,250 кадров/сек (1536 SPF)
Метод сжатия : С потерями
Задержка видео : 20 мс.
Размер потока : 329 Мбайт (9%)
Заголовок : Original@DD5.1 E-AC3 , 640 Kbps, 48.0 KHz, 6 ch
Язык : English
ServiceKind/String : Complete Main
Default : Нет
Forced : Нет
Текст #1
Идентификатор : 2
Формат : UTF-8
Идентификатор кодека : S_TEXT/UTF8
Идентификатор кодека/Информация : UTF-8 Plain Text
Продолжительность : 1 ч. 11 м.
Битрейт : 7 бит/сек
ElementCount : 72
Размер потока : 4,11 Кбайт (0%)
Заголовок : Russian-Forced
Язык : Russian
Default : Да
Forced : Нет
Текст #2
Идентификатор : 3
Формат : UTF-8
Идентификатор кодека : S_TEXT/UTF8
Идентификатор кодека/Информация : UTF-8 Plain Text
Продолжительность : 1 ч. 11 м.
Битрейт : 67 бит/сек
ElementCount : 769
Размер потока : 35,2 Кбайт (0%)
Заголовок : Russian
Язык : Russian
Default : Нет
Forced : Нет
Текст #3
Идентификатор : 9
Формат : UTF-8
Идентификатор кодека : S_TEXT/UTF8
Идентификатор кодека/Информация : UTF-8 Plain Text
Продолжительность : 1 ч. 11 м.
Битрейт : 51 бит/сек
ElementCount : 872
Размер потока : 26,8 Кбайт (0%)
Заголовок : Parce Domine-Original - SDH
Язык : English
Default : Нет
Forced : Нет
Текст #4
Идентификатор : 10
Формат : UTF-8
Идентификатор кодека : S_TEXT/UTF8
Идентификатор кодека/Информация : UTF-8 Plain Text
Продолжительность : 1 ч. 11 м.
Битрейт : 41 бит/сек
ElementCount : 715
Размер потока : 21,9 Кбайт (0%)
Заголовок : Parce Domine-Original
Язык : English
Default : Нет
Forced : Нет
Меню
00:00:00.000 : ru:Глава 01 / ru:Глава 01 / ru:Глава 01 / ru:Глава 01 / ru:Глава 01 / ru:Глава 01 / ru:Глава 01 / ru:Глава 01 / ru:Глава 01 / ru:Глава 01
--

Скриншоты


- 3-сезон.--Внимание! Раздача пополняется по мере выхода новых серий!--

Внимание! Раздача ведётся путём добавления новых серий!

Раздача ведётся путём добавления новых серий; при каждом добавлении создётся новый торрент.
Чтобы начать докачку новой серии, пользователям необходимо сделать следующее:
1. остановить скачивание,
2. удалить старый торрент у себя из клиента (старые серии удалять не надо),
3. скачать новый торрент и запустить его у себя в клиенте вместо старого, при этом указать клиенту путь в старую папку, куда и должно происходить скачивание новых серий.
Ваш клиент при этом должен произвести хеширование (проверку) старой папки (если не производит сам - помогите ему сделать это), и будет докачивать только те серии которых у вас ещё нет. Старые серии при этом не удаляются, а продолжают раздаваться!
Eсли вы уже удалили старые серии, то предотвратить повторную закачку старых серий можно, отжав галочку в соответсвующих местах при запуске нового торрента. По возможности, желательно не удалять старые серии как можно дольше, чтобы релизёр не столько продолжал раздавать старые серии, а смог сконцентрироваться на новых.
Совет для тех, кто не хочет ждать перехеширования:
Создайте ещё одну папку рядом с папкой сериала (рядом, а не в ней!!!). Каждую новую серию после удачной загрузки копируйте в новую папку так чтобы ваша основная папка всегда была пуста. Когда ваш новый торрент предложит вам закачать все файлы, выберете только последнюю. Для сидирования же укажите адрес новой папки.
Как закачать отдельный файл из торрента или докачать ранее пропущенные файлы торрента!

Как закачать отдельный файл

1. Открыть торрент
2. Снять галки с тех файлов торрента, которые мы не хотим закачивать. Оставляем только на нужных нам файлах (файле).
3. Нажать О.К.
В клиенте utorrent
Инструкция
1) Открыть торрент

2) Снять галки с тех файлов торрента, которые мы не хотим закачивать:
* либо вручную, снимая с каждого файла галку( скрин №1)
* либо, нажав кнопку "Снять метки (Select None)", сняв сразу со всех файлов(скрин №2)
№1

№2

Оставляем только на нужных нам файлах (файле).

3)Нажать О.К
-- -- --Внимание!!! 27.03. 2020. РАЗДАЧА ОБНОВЛЕНА. ДОБАВЛЕНА -2- СЕРИЯ. ОБНОВИТЕ ТОРЕНТ ФАЙЛ. ПРИЯТНОГО ПРОСМОТРА . Поблагодарить:
ЯД: 410017546713876
--Релиз от: Nikolai.Baranov & PIRATIYA -- -- -- --Время раздачи : 24/7---

_________________

Легко быть оптимистом, когда судьба не валит с ног тяжелыми ударами, а лишь иногда легонько шлепает по заднице.
[Торрент-статистика]
[Профиль]  [ЛС] 
Показать сообщения:    
Ответить на тему

Текущее время: Сегодня 21:29

Часовой пояс: GMT + 4



Вы не можете начинать темы
Вы не можете отвечать на сообщения
Вы не можете редактировать свои сообщения
Вы не можете удалять свои сообщения
Вы не можете голосовать в опросах
Вы не можете прикреплять файлы к сообщениям
Вы не можете скачивать файлы