Нарко: Мексика/ Narcos: Mexico (Сезон 2 , Серия 1-10 из 10) (Андрес Байс,Джозеф Владыка) [2020, Драма, криминал, биографияWEB-DLRip 1080p] [LostFilm+Кубик в Кубе+Eng]+[Subs Rus ,ENG]

Ответить на тему
 
Автор
Сообщение

Враг Нароода ®

Пол:

Стаж: 2 года 6 месяцев

Сообщений: 198

Репутация: 213 [+] [-]

Откуда: Красногорск

Пост 25-Фев-2020 22:57

[Цитировать] 

---- Нарко: Мексика/ Narcos: Mexico (Сезон 2 , Серия 1-10 из 10) - Полный Комплект -- --Год выпуска: 2020
Выпущено: США, Мексика, Gaumont International Television, Netflix
Жанр: Драма, криминал, биография
Продолжительность: 01:00:00
Сезон:2
Серия:1-10
Количество серий в сезоне:10--Озвучка #1: Профессиональный многоголосый - LostFilm - Русский
Озвучка #2: Профессиональный двухголосый - Кубик в Кубе - Русский
Озвучка #3: Профессиональный многоголосый -Английский - Оригинал
Субтитры: Russian , English, English SDH
--Релиз Без Рекламы --MDB 8.4 --Режиссеры:
Андрес Байс, Амат Эскаланте, Алонсо Руис Палашиос, Джозеф Владыка--В ролях: Алисса Диас, Диего Луна, Майкл Пенья, Тереса Руис, Кларк Фриман, Марк Кубр, Андрес Альмейда, Хулио Седильо, Майк Дойл, Тесса Иа-- Американский остросюжетный драматический сериал «Нарко: Мексика» (Narcos: Mexico) является логическим продолжением сериала «Нарко» о жизни колумбийского наркобарона Пабло Эскобара. Мексика, 80-е годы XX века. Страну раздирает война нескольких наркокартелей, происходят постоянные убийства полицейских, а трафик наркотиков идет в США и другие страны. Картель Гвадалахара, один из его лидеров — Мигель Галлардо. Мигель объединяет людей в огромную структуру с сетью осведомителей и тайных агентов. В Гвадалахару из Калифорнии прибывает агент Управления США по контролю над наркотиками Кики Камарена вместе со своей семьей — женой Микой и тремя детьми. Он назначен на новую должность, и первым заданием Кики становится расследование дела местного картеля. Начав работу, Кики понимает, что его задание намного сложнее, чем он мог себе представить. В борьбе с наркотрафиком Камарена готов на все, однако и его противники понимают, что перед ними опасный враг.-- --Качество :WEB-DLRip - HEVC 10bit - 1080p
Формат: MKV
Видео кодек: H265
Видео: 4482Кбит/сек,,1920х960(2.000),в 23.976кадр/сек,HEVC (Main10@L5.1@Main)--Аудио Кодек:AC3
Аудио #1: MVO LostFilm @DD5.1 AC3, 640 Kbps, 48.0 KHz, 6 ch- LostFilm -Русский
Аудио #2: MVO Кубик в Кубе @DD5.1 AC3, 384 Kbps, 48.0 KHz, 6 ch- Кубик в Кубе -Русский
Аудио #3: Original@DD5.1 AC3 ,640 Kbps, 48.0 KHz, 6 ch - English - Оригинал--

Доп. информация:

Звуковая дорожка сделана путем наложения чистого голоса озвучивателей на центральный канал оригинальной дорожки. Качество идентично звуковой дорожке.
--

Список эпизодов сезона


2 сезон 1 серия - Спасти тигра - Salva El Tigre
2 сезон 2 серия - Жребий брошен - Alea lacta Est
2 сезон 3 серия - Рубен Суно Арсе - Rubén Zuno Arce
2 сезон 4 серия - Большая копка - The Big Dig
2 сезон 5 серия - ОАФ - AFO
2 сезон 6 серия - Выбор преемника - El Dedazo
2 сезон 7 серия - Правда и примирение - Truth and Reconciliation
2 сезон 8 серия - Падение системы - Se Cayó El Sistema
2 сезон 9 серия - Рост, процветание и освобождение - Growth Prosperity and Liberation
2 сезон 10 серия - Свободная торговля - Free Trade
--

MediaInfo 2-сезон

Общее
Уникальный идентификатор : 324422903361350304335852111066281034045 (0xF4119413856172207706595976B8413D)
Полное имя : F:\Nikolai.Baranov & PIRATIYA\Нарко Мексика - Narcos Mexico\Narcos.Mexico_2020_S02_HEVC- 10Bit_Н265_DD5.1_N.B_HD_1080_Rus_LostFilm_Eng\Narcos.Mexico_S02E01_HEVC_DD5.1_N.B_HD_1080_Rus_LostFilm_Eng.mkv
Формат : Matroska
Версия формата : Version 4
Размер файла : 2,82 Гбайт
Продолжительность : 1 ч. 5 м.
Общий поток : 6148 Кбит/сек
Название фильма : Narcos Mexico 2020 S02E01 @ Nikolai.Baranov & PIRATIYA
Дата кодирования : UTC 2020-03-23 06:26:10
Программа кодирования : mkvmerge v44.0.0 ('Domino') 64-bit
Библиотека кодирования : libebml v1.3.10 + libmatroska v1.5.2
Видео
Идентификатор : 1
Формат : HEVC
Формат/Информация : High Efficiency Video Coding
Профиль формата : Main 10@L5.1@Main
Идентификатор кодека : V_MPEGH/ISO/HEVC
Продолжительность : 1 ч. 5 м.
Битрейт : 4482 Кбит/сек
Ширина : 1920 пикселей
Высота : 960 пикселей
Соотношение сторон : 2,000
Режим частоты кадров : Постоянный
Частота кадров : 23,976 (24000/1001) кадра/сек
Цветовое пространство : YUV
Субдискретизация насыщенности : 4:2:0
Битовая глубина : 10 бит
Бит/(Пиксели*Кадры) : 0.101
Размер потока : 2,06 Гбайт (73%)
Заголовок : Narcos.Mexico_S02E01_HEVC_DD5.1_N.B_HD_1080_Rus_LostFilm_Eng
Язык : Russian
Default : Да
Forced : Нет
Цветовой диапазон : Full
Основные цвета : BT.709
Характеристики трансфера : BT.709
Коэффициенты матрицы : BT.709
Аудио #1
Идентификатор : 2
Формат : AC-3
Формат/Информация : Audio Coding 3
Коммерческое название : Dolby Digital
Идентификатор кодека : A_AC3
Продолжительность : 1 ч. 5 м.
Вид битрейта : Постоянный
Битрейт : 640 Кбит/сек
Каналы : 6 каналов
ChannelLayout : L R C LFE Ls Rs
Частота : 48,0 КГц
Частота кадров : 31,250 кадров/сек (1536 SPF)
Метод сжатия : С потерями
Размер потока : 301 Мбайт (10%)
Заголовок : MVO LostFilm @DD5.1 AC3, 640 Kbps, 48.0 KHz, 6 ch
Язык : Russian
ServiceKind/String : Complete Main
Default : Да
Forced : Нет
Аудио #2
Идентификатор : 3
Формат : AC-3
Формат/Информация : Audio Coding 3
Коммерческое название : Dolby Digital
Идентификатор кодека : A_AC3
Продолжительность : 1 ч. 5 м.
Вид битрейта : Постоянный
Битрейт : 640 Кбит/сек
Каналы : 6 каналов
ChannelLayout : L R C LFE Ls Rs
Частота : 48,0 КГц
Частота кадров : 31,250 кадров/сек (1536 SPF)
Метод сжатия : С потерями
Размер потока : 301 Мбайт (10%)
Заголовок : Original@DD5.1 AC3 ,640 Kbps, 48.0 KHz, 6 ch
Язык : English
ServiceKind/String : Complete Main
Default : Нет
Forced : Нет
Аудио #3
Идентификатор : 8
Формат : AC-3
Формат/Информация : Audio Coding 3
Коммерческое название : Dolby Digital
Идентификатор кодека : A_AC3
Продолжительность : 1 ч. 5 м.
Вид битрейта : Постоянный
Битрейт : 384 Кбит/сек
Каналы : 6 каналов
ChannelLayout : L R C LFE Ls Rs
Частота : 48,0 КГц
Частота кадров : 31,250 кадров/сек (1536 SPF)
Метод сжатия : С потерями
Размер потока : 181 Мбайт (6%)
Заголовок : MVO Кубик в Кубе @DD5.1 AC3, 384 Kbps, 48.0 KHz, 6 ch
Язык : Russian
ServiceKind/String : Complete Main
Default : Нет
Forced : Нет
Текст #1
Идентификатор : 4
Формат : UTF-8
Идентификатор кодека : S_TEXT/UTF8
Идентификатор кодека/Информация : UTF-8 Plain Text
Продолжительность : 1 ч. 5 м.
Битрейт : 70 бит/сек
ElementCount : 764
Размер потока : 33,8 Кбайт (0%)
Заголовок : Спасти тигра-Russian
Язык : Russian
Default : Да
Forced : Нет
Текст #2
Идентификатор : 5
Формат : UTF-8
Идентификатор кодека : S_TEXT/UTF8
Идентификатор кодека/Информация : UTF-8 Plain Text
Продолжительность : 1 ч. 2 м.
Битрейт : 32 бит/сек
ElementCount : 569
Размер потока : 14,8 Кбайт (0%)
Заголовок : Salva El Tigre-Eng-Forced
Язык : English
Default : Нет
Forced : Нет
Текст #3
Идентификатор : 6
Формат : UTF-8
Идентификатор кодека : S_TEXT/UTF8
Идентификатор кодека/Информация : UTF-8 Plain Text
Продолжительность : 1 ч. 4 м.
Битрейт : 54 бит/сек
ElementCount : 887
Размер потока : 25,9 Кбайт (0%)
Заголовок : Salva El Tigre-Original - SDH
Язык : English
Default : Нет
Forced : Нет
Текст #4
Идентификатор : 7
Формат : UTF-8
Идентификатор кодека : S_TEXT/UTF8
Идентификатор кодека/Информация : UTF-8 Plain Text
Продолжительность : 1 ч. 2 м.
Битрейт : 48 бит/сек
ElementCount : 783
Размер потока : 22,3 Кбайт (0%)
Заголовок : Salva El Tigre-Original
Язык : English
Default : Нет
Forced : Нет
Меню
00:02:52.484 : en:Intro start
00:04:18.195 : en:Intro end
--

Скриншоты

-- -2-сезон.--

Как закачать отдельный файл

1. Открыть торрент
2. Снять галки с тех файлов торрента, которые мы не хотим закачивать. Оставляем только на нужных нам файлах (файле).
3. Нажать О.К.
В клиенте utorrent
Инструкция
1) Открыть торрент

2) Снять галки с тех файлов торрента, которые мы не хотим закачивать:
* либо вручную, снимая с каждого файла галку( скрин №1)
* либо, нажав кнопку "Снять метки (Select None)", сняв сразу со всех файлов(скрин №2)
№1

№2

Оставляем только на нужных нам файлах (файле).

3)Нажать О.К
-- -- --Внимание!!! 08.05. 2020. РАЗДАЧА ОБНОВЛЕНА. ДОБАВЛЕНА -Звуковая Дорожка Кубик в Кубе. ФИНАЛ СЕЗОНА . ОБНОВИТЕ ТОРЕНТ ФАЙЛ. ПРИЯТНОГО ПРОСМОТРА . Поблагодарить:
ЯД: 410017546713876
--Релиз от: Nikolai.Baranov & PIRATIYA -- -- -- --Время раздачи : 24/7---

_________________

Легко быть оптимистом, когда судьба не валит с ног тяжелыми ударами, а лишь иногда легонько шлепает по заднице.
[Торрент-статистика]
[Профиль]  [ЛС] 
Показать сообщения:    
Ответить на тему

Текущее время: Сегодня 23:44

Часовой пояс: GMT + 4



Вы не можете начинать темы
Вы не можете отвечать на сообщения
Вы не можете редактировать свои сообщения
Вы не можете удалять свои сообщения
Вы не можете голосовать в опросах
Вы не можете прикреплять файлы к сообщениям
Вы не можете скачивать файлы