Достать ножи/ Knives Out (Райан Джонсон) [2019, Детектив, комедия, драма, криминал,WEB-DLRip 400p] [DUB,Rus+DUB,Ukr+HDrezka+Zamez+ENG]+[Subs Rus , ENG]

Ответить на тему
 
Автор
Сообщение

Враг Нароода ®

Пол:

Стаж: 2 года 2 месяца

Сообщений: 174

Репутация: 195 [+] [-]

Откуда: Красногорск

Пост 15-Фев-2020 09:57

[Цитировать] 

--Достать ножи/ Knives Out -- ---Год выпуска: 2019
Выпущено: США , Lionsgate, Media Rights Capital (MRC), T-Street See
Жанр: Детектив, комедия, драма, криминал
Продолжительность: 02:11:50--Озвучка #1: Профессиональный , Дублированный - - Русский
Озвучка #2: Профессиональный многоголосый - HDrezka Studio - Русский
Озвучка #3:Любительский одноголосый - Вячеслав Замез - Русский
Озвучка #4: Профессиональный , Дублированный - - украинский
Озвучка #5: Профессиональный многоголосый -Английский - Оригинал
Субтитры: Русские (Forced, Full), английские, английские SDH
--Релиз Релиз Без Рекламы - Ненормативная лексика --MDB 8.0 -Режиссеры:
Райан Джонсон--В ролях: : Дэниэл Крэйг, Ана де Армас, Крис Эванс, Джейми Ли Кёртис, Майкл Шеннон, Дон Джонсон, Тони Коллетт, Лакит Стэнфилд, Кристофер Пламмер, Кэтрин Лэнгфорд, Джейден Мартелл, Рики Линдхоум, Эди Паттерсон, Ноа Сеган-- На следующее утро после празднования 85-летия известного автора криминальных романов Харлана Тромби виновника торжества находят мёртвым. На лицо — явное самоубийство, но полиция по протоколу опрашивает всех присутствующих в особняке членов семьи, хотя, в этом деле больше заинтересован частный детектив Бенуа Блан. Тем же утром он получил конверт с наличными от неизвестного и заказ на расследование смерти Харлана. Не нужно быть опытным следователем, чтобы понять, что все приукрашивают свои отношения с почившим главой семейства, но Блану достаётся настоящий подарок — медсестра покойного, которая физически не выносит ложь.-- --Качество :WEB-DLRip 400p
Формат: MKV
Видео кодек: H264
Видео: 1614Кбит/сек,704х384(1.85.1),в 23.976кадр/сек, MPEG 4--Аудио Кодек:AC3
Аудио #1:9 DUB Rus @DD5.1 AC3, 384 Kbps, 48.0 KHz, 6 ch- -Русский
Аудио #2: MVO HDrezka Studio @DD5.1 AC3, 384 Kbps, 48.0 KHz, 6 ch-HDrezka Studio -Русский
Аудио #3: VO Zamez @DD5.1 AC3, 384 Kbps, 48.0 KHz, 6 ch- Zamez -Русский
Аудио #4: DUB Ukr @DD5.1 AC3, 384 Kbps, 48.0 KHz, 6 ch- -украинский
Аудио #5: Original@DD5.1 E-AC3 ,640 Kbps, 48.0 KHz, 6 ch- English - Оригинал--

Доп. информация:

Звуковая дорожка сделана путем наложения чистого голоса озвучивателей на центральный канал оригинальной дорожки. Качество идентично звуковой дорожке.
--

MediaInfo

Общее
Уникальный идентификатор : 239494006404546073765428627980787109421 (0xB42CDE2AFF2B2785E88782D15B0FCE2D)
Полное имя : D:\PIRATIYA\Достать ножи - Knives Out\Knives.Out.2019_Н264_DD5.1_N.B_WEB-DLRip_400_3xRus_Ukr_Eng\Knives.Out.2019_Н264_DD5.1_N.B_WEB-DLRip_400_3xRus_Ukr_Eng.mkv
Формат : Matroska
Версия формата : Version 4
Размер файла : 3,45 Гбайт
Продолжительность : 2 ч. 10 м.
Общий поток : 3792 Кбит/сек
Название фильма : Knives Out 2019 @ Nikolai.Baranov & PIRATIYA
Дата кодирования : UTC 2020-02-14 15:50:45
Программа кодирования : mkvmerge v43.0.0 ('The Quartermaster') 64-bit
Библиотека кодирования : libebml v1.3.10 + libmatroska v1.5.2 / Lavf58.20.100
Видео
Идентификатор : 1
Формат : MPEG-4 Visual
Профиль формата : Advanced Simple@L5
Настройки формата : BVOP1 / Custom Matrix
Параметр BVOP формата : 1
Параметр QPel формата : Нет
Параметр GMC формата : Без точки перехода
Параметр матрицы формата : Выборочная
Идентификатор кодека : V_MPEG4/ISO/ASP
Идентификатор кодека/Информация : Advanced Simple Profile
Продолжительность : 2 ч. 10 м.
Битрейт : 1614 Кбит/сек
Ширина : 704 пикселя
Высота : 384 пикселя
Соотношение сторон : 1,85:1
Режим частоты кадров : Постоянный
Частота кадров : 23,976 (23976/1000) кадра/сек
Цветовое пространство : YUV
Субдискретизация насыщенности : 4:2:0
Битовая глубина : 8 бит
Тип развёртки : Прогрессивная
Метод сжатия : С потерями
Бит/(Пиксели*Кадры) : 0.249
Размер потока : 1,47 Гбайт (43%)
Заголовок : Knives.Out.2019_Н264_DD5.1_N.B_WEB-DLRip_400_3xRus_Ukr_Eng
Библиотека кодирования : XviD 73
Язык : Russian
Default : Да
Forced : Нет
Аудио #1
Идентификатор : 4
Формат : AC-3
Формат/Информация : Audio Coding 3
Коммерческое название : Dolby Digital
Идентификатор кодека : A_AC3
Продолжительность : 2 ч. 10 м.
Вид битрейта : Постоянный
Битрейт : 384 Кбит/сек
Каналы : 6 каналов
ChannelLayout : L R C LFE Ls Rs
Частота : 48,0 КГц
Частота кадров : 31,250 кадров/сек (1536 SPF)
Метод сжатия : С потерями
Задержка видео : -41 мс.
Размер потока : 357 Мбайт (10%)
Заголовок : DUB Rus @DD5.1 AC3, 384 Kbps, 48.0 KHz, 6 ch
Язык : Russian
ServiceKind/String : Complete Main
Default : Да
Forced : Нет
Аудио #2
Идентификатор : 5
Формат : AC-3
Формат/Информация : Audio Coding 3
Коммерческое название : Dolby Digital
Идентификатор кодека : A_AC3
Продолжительность : 2 ч. 10 м.
Вид битрейта : Постоянный
Битрейт : 384 Кбит/сек
Каналы : 6 каналов
ChannelLayout : L R C LFE Ls Rs
Частота : 48,0 КГц
Частота кадров : 31,250 кадров/сек (1536 SPF)
Метод сжатия : С потерями
Задержка видео : -41 мс.
Размер потока : 357 Мбайт (10%)
Заголовок : MVO HDrezka Studio @DD5.1 AC3, 384 Kbps, 48.0 KHz, 6 ch
Язык : Russian
ServiceKind/String : Complete Main
Default : Нет
Forced : Нет
Аудио #3
Идентификатор : 6
Формат : AC-3
Формат/Информация : Audio Coding 3
Коммерческое название : Dolby Digital
Идентификатор кодека : A_AC3
Продолжительность : 2 ч. 10 м.
Вид битрейта : Постоянный
Битрейт : 384 Кбит/сек
Каналы : 6 каналов
ChannelLayout : L R C LFE Ls Rs
Частота : 48,0 КГц
Частота кадров : 31,250 кадров/сек (1536 SPF)
Метод сжатия : С потерями
Задержка видео : -41 мс.
Размер потока : 357 Мбайт (10%)
Заголовок : VO Zamez @DD5.1 AC3, 384 Kbps, 48.0 KHz, 6 ch
Язык : Russian
ServiceKind/String : Complete Main
Default : Нет
Forced : Нет
Аудио #4
Идентификатор : 7
Формат : AC-3
Формат/Информация : Audio Coding 3
Коммерческое название : Dolby Digital
Идентификатор кодека : A_AC3
Продолжительность : 2 ч. 10 м.
Вид битрейта : Постоянный
Битрейт : 384 Кбит/сек
Каналы : 6 каналов
ChannelLayout : L R C LFE Ls Rs
Частота : 48,0 КГц
Частота кадров : 31,250 кадров/сек (1536 SPF)
Метод сжатия : С потерями
Задержка видео : -41 мс.
Размер потока : 357 Мбайт (10%)
Заголовок : DUB Ukr @DD5.1 AC3, 384 Kbps, 48.0 KHz, 6 ch
Язык : Ukrainian
ServiceKind/String : Complete Main
Default : Нет
Forced : Нет
Аудио #5
Идентификатор : 8
Формат : E-AC-3
Формат/Информация : Enhanced AC-3
Коммерческое название : Dolby Digital Plus
Идентификатор кодека : A_EAC3
Продолжительность : 2 ч. 10 м.
Вид битрейта : Постоянный
Битрейт : 640 Кбит/сек
Каналы : 6 каналов
ChannelLayout : L R C LFE Ls Rs
Частота : 48,0 КГц
Частота кадров : 31,250 кадров/сек (1536 SPF)
Метод сжатия : С потерями
Задержка видео : -41 мс.
Размер потока : 596 Мбайт (17%)
Заголовок : Original@DD5.1 E-AC3 ,640 Kbps, 48.0 KHz, 6 ch
Язык : English
ServiceKind/String : Complete Main
Default : Нет
Forced : Нет
Текст #1
Идентификатор : 2
Формат : UTF-8
Идентификатор кодека : S_TEXT/UTF8
Идентификатор кодека/Информация : UTF-8 Plain Text
Продолжительность : 2 ч. 4 м.
Битрейт : 0 бит/сек
ElementCount : 11
Размер потока : 786 байт (0%)
Заголовок : Russian-Forced
Язык : Russian
Default : Да
Forced : Нет
Текст #2
Идентификатор : 3
Формат : UTF-8
Идентификатор кодека : S_TEXT/UTF8
Идентификатор кодека/Информация : UTF-8 Plain Text
Продолжительность : 2 ч. 4 м.
Битрейт : 126 бит/сек
ElementCount : 1843
Размер потока : 115 Кбайт (0%)
Заголовок : Russian
Язык : Russian
Default : Нет
Forced : Нет
Текст #3
Идентификатор : 9
Формат : UTF-8
Идентификатор кодека : S_TEXT/UTF8
Идентификатор кодека/Информация : UTF-8 Plain Text
Продолжительность : 2 ч. 2 м.
Битрейт : 89 бит/сек
ElementCount : 2795
Размер потока : 79,8 Кбайт (0%)
Заголовок : Original - SDH
Язык : English
Default : Нет
Forced : Нет
Текст #4
Идентификатор : 10
Формат : UTF-8
Идентификатор кодека : S_TEXT/UTF8
Идентификатор кодека/Информация : UTF-8 Plain Text
Продолжительность : 2 ч. 2 м.
Битрейт : 85 бит/сек
ElementCount : 2616
Размер потока : 76,2 Кбайт (0%)
Заголовок : Original
Язык : English
Default : Нет
Forced : Нет
Меню
00:00:00.000 : en:Studio Logo
00:00:39.000 : en:Scene 2
00:02:16.000 : en:Title Sequence
00:02:21.000 : en:Scene 4
00:06:49.000 : en:Scene 5
00:12:48.000 : en:Scene 6
00:18:31.000 : en:Scene 7
00:25:12.000 : en:Scene 8
00:31:49.000 : en:Scene 9
00:38:52.000 : en:Scene 10
00:43:01.000 : en:Scene 11
00:49:44.000 : en:Scene 12
00:54:28.000 : en:Scene 13
01:00:14.000 : en:Scene 14
01:04:54.000 : en:Scene 15
01:10:26.000 : en:Scene 16
01:15:37.000 : en:Scene 17
01:21:55.000 : en:Scene 18
01:28:50.000 : en:Scene 19
01:36:15.000 : en:Scene 20
01:42:17.000 : en:Scene 21
01:46:54.000 : en:Scene 22
01:52:17.000 : en:Scene 23
02:01:45.000 : en:Scene 24
02:05:13.000 : en:End Credits
--

Скриншоты

-- -- -- --Релиз от: Nikolai.Baranov & PIRATIYA . Поблагодарить:
ЯД: 410017546713876
-- -- -- --Время раздачи : 24/7--

_________________

Легко быть оптимистом, когда судьба не валит с ног тяжелыми ударами, а лишь иногда легонько шлепает по заднице.
[Торрент-статистика]
[Профиль]  [ЛС] 
Показать сообщения:    
Ответить на тему

Текущее время: Сегодня 21:13

Часовой пояс: GMT + 4



Вы не можете начинать темы
Вы не можете отвечать на сообщения
Вы не можете редактировать свои сообщения
Вы не можете удалять свои сообщения
Вы не можете голосовать в опросах
Вы не можете прикреплять файлы к сообщениям
Вы не можете скачивать файлы